  0
SECTION
  2
HEADER
  9
$ACADVER
  1
AC1015
  9
$ACADMAINTVER
 70
     6
  9
$DWGCODEPAGE
  3
DOS932
  9
$INSBASE
 10
0.0
 20
0.0
 30
0.0
  9
$EXTMIN
 10
0.0
 20
0.0
 30
0.0
  9
$EXTMAX
 10
420.0
 20
297.0
 30
0.0
  9
$LIMMIN
 10
0.0
 20
0.0
  9
$LIMMAX
 10
420.0
 20
297.0
  9
$ORTHOMODE
 70
     0
  9
$REGENMODE
 70
     1
  9
$FILLMODE
 70
     1
  9
$QTEXTMODE
 70
     0
  9
$MIRRTEXT
 70
     1
  9
$LTSCALE
 40
1.0
  9
$ATTMODE
 70
     1
  9
$TEXTSIZE
 40
3.5
  9
$TRACEWID
 40
1.0
  9
$TEXTSTYLE
  7
Standard
  9
$CLAYER
  8
0
  9
$CELTYPE
  6
ByLayer
  9
$CECOLOR
 62
   256
  9
$CELTSCALE
 40
1.0
  9
$DISPSILH
 70
     0
  9
$DIMSCALE
 40
1.0
  9
$DIMASZ
 40
3.0
  9
$DIMEXO
 40
1.0
  9
$DIMDLI
 40
3.75
  9
$DIMRND
 40
0.0
  9
$DIMDLE
 40
0.0
  9
$DIMEXE
 40
1.0
  9
$DIMTP
 40
0.0
  9
$DIMTM
 40
0.0
  9
$DIMTXT
 40
3.5
  9
$DIMCEN
 40
2.5
  9
$DIMTSZ
 40
0.0
  9
$DIMTOL
 70
     0
  9
$DIMLIM
 70
     0
  9
$DIMTIH
 70
     1
  9
$DIMTOH
 70
     1
  9
$DIMSE1
 70
     0
  9
$DIMSE2
 70
     0
  9
$DIMTAD
 70
     1
  9
$DIMZIN
 70
     0
  9
$DIMBLK
  1

  9
$DIMASO
 70
     1
  9
$DIMSHO
 70
     1
  9
$DIMPOST
  1

  9
$DIMAPOST
  1

  9
$DIMALT
 70
     0
  9
$DIMALTD
 70
     3
  9
$DIMALTF
 40
0.0393700787
  9
$DIMLFAC
 40
1.0
  9
$DIMTOFL
 70
     1
  9
$DIMTVP
 40
0.0
  9
$DIMTIX
 70
     0
  9
$DIMSOXD
 70
     0
  9
$DIMSAH
 70
     0
  9
$DIMBLK1
  1

  9
$DIMBLK2
  1

  9
$DIMSTYLE
  2
ISO-25
  9
$DIMCLRD
 70
     0
  9
$DIMCLRE
 70
     0
  9
$DIMCLRT
 70
     0
  9
$DIMTFAC
 40
1.0
  9
$DIMGAP
 40
1.524
  9
$DIMJUST
 70
     0
  9
$DIMSD1
 70
     0
  9
$DIMSD2
 70
     0
  9
$DIMTOLJ
 70
     0
  9
$DIMTZIN
 70
     0
  9
$DIMALTZ
 70
     0
  9
$DIMALTTZ
 70
     0
  9
$DIMUPT
 70
     0
  9
$DIMDEC
 70
     2
  9
$DIMTDEC
 70
     2
  9
$DIMALTU
 70
     2
  9
$DIMALTTD
 70
     3
  9
$DIMTXSTY
  7
Standard
  9
$DIMAUNIT
 70
     0
  9
$DIMADEC
 70
     2
  9
$DIMALTRND
 40
0.0
  9
$DIMAZIN
 70
     0
  9
$DIMDSEP
 70
    44
  9
$DIMATFIT
 70
     3
  9
$DIMFRAC
 70
     0
  9
$DIMLDRBLK
  1

  9
$DIMLUNIT
 70
     2
  9
$DIMLWD
 70
    -2
  9
$DIMLWE
 70
    -2
  9
$DIMTMOVE
 70
     0
  9
$LUNITS
 70
     2
  9
$LUPREC
 70
     4
  9
$SKETCHINC
 40
1.0
  9
$FILLETRAD
 40
10.0
  9
$AUNITS
 70
     0
  9
$AUPREC
 70
     2
  9
$MENU
  1
.
  9
$ELEVATION
 40
0.0
  9
$PELEVATION
 40
0.0
  9
$THICKNESS
 40
0.0
  9
$LIMCHECK
 70
     0
  9
$CHAMFERA
 40
0.0
  9
$CHAMFERB
 40
0.0
  9
$CHAMFERC
 40
0.0
  9
$CHAMFERD
 40
0.0
  9
$SKPOLY
 70
     0
  9
$TDCREATE
 40
2458900.580243171
  9
$TDUCREATE
 40
2458900.205243171
  9
$TDUPDATE
 40
2458900.580248056
  9
$TDUUPDATE
 40
2458900.205248056
  9
$TDINDWG
 40
0.0000000116
  9
$TDUSRTIMER
 40
0.0000000116
  9
$USRTIMER
 70
     1
  9
$ANGBASE
 50
0.0
  9
$ANGDIR
 70
     0
  9
$PDMODE
 70
     0
  9
$PDSIZE
 40
-1.0
  9
$PLINEWID
 40
0.0
  9
$SPLFRAME
 70
     0
  9
$SPLINETYPE
 70
     6
  9
$SPLINESEGS
 70
     8
  9
$HANDSEED
  5
29C
  9
$SURFTAB1
 70
     6
  9
$SURFTAB2
 70
     6
  9
$SURFTYPE
 70
     6
  9
$SURFU
 70
     6
  9
$SURFV
 70
     6
  9
$UCSBASE
  2

  9
$UCSNAME
  2

  9
$UCSORG
 10
0.0
 20
0.0
 30
0.0
  9
$UCSXDIR
 10
1.0
 20
0.0
 30
0.0
  9
$UCSYDIR
 10
0.0
 20
1.0
 30
0.0
  9
$UCSORTHOREF
  2

  9
$UCSORTHOVIEW
 70
     0
  9
$UCSORGTOP
 10
0.0
 20
0.0
 30
0.0
  9
$UCSORGBOTTOM
 10
0.0
 20
0.0
 30
0.0
  9
$UCSORGLEFT
 10
0.0
 20
0.0
 30
0.0
  9
$UCSORGRIGHT
 10
0.0
 20
0.0
 30
0.0
  9
$UCSORGFRONT
 10
0.0
 20
0.0
 30
0.0
  9
$UCSORGBACK
 10
0.0
 20
0.0
 30
0.0
  9
$PUCSBASE
  2

  9
$PUCSNAME
  2

  9
$PUCSORG
 10
0.0
 20
0.0
 30
0.0
  9
$PUCSXDIR
 10
1.0
 20
0.0
 30
0.0
  9
$PUCSYDIR
 10
0.0
 20
1.0
 30
0.0
  9
$PUCSORTHOREF
  2

  9
$PUCSORTHOVIEW
 70
     0
  9
$PUCSORGTOP
 10
0.0
 20
0.0
 30
0.0
  9
$PUCSORGBOTTOM
 10
0.0
 20
0.0
 30
0.0
  9
$PUCSORGLEFT
 10
0.0
 20
0.0
 30
0.0
  9
$PUCSORGRIGHT
 10
0.0
 20
0.0
 30
0.0
  9
$PUCSORGFRONT
 10
0.0
 20
0.0
 30
0.0
  9
$PUCSORGBACK
 10
0.0
 20
0.0
 30
0.0
  9
$USERI1
 70
     0
  9
$USERI2
 70
     0
  9
$USERI3
 70
     0
  9
$USERI4
 70
     0
  9
$USERI5
 70
     0
  9
$USERR1
 40
0.0
  9
$USERR2
 40
0.0
  9
$USERR3
 40
0.0
  9
$USERR4
 40
0.0
  9
$USERR5
 40
0.0
  9
$WORLDVIEW
 70
     1
  9
$SHADEDGE
 70
     3
  9
$SHADEDIF
 70
    70
  9
$TILEMODE
 70
     1
  9
$MAXACTVP
 70
    64
  9
$PINSBASE
 10
0.0
 20
0.0
 30
0.0
  9
$PLIMCHECK
 70
     0
  9
$PEXTMIN
 10
1.0000000000E+20
 20
1.0000000000E+20
 30
1.0000000000E+20
  9
$PEXTMAX
 10
-1.0000000000E+20
 20
-1.0000000000E+20
 30
-1.0000000000E+20
  9
$PLIMMIN
 10
0.0
 20
0.0
  9
$PLIMMAX
 10
420.0
 20
297.0
  9
$UNITMODE
 70
     0
  9
$VISRETAIN
 70
     1
  9
$PLINEGEN
 70
     0
  9
$PSLTSCALE
 70
     1
  9
$TREEDEPTH
 70
  3020
  9
$CMLSTYLE
  2
Standard
  9
$CMLJUST
 70
     0
  9
$CMLSCALE
 40
20.0
  9
$PROXYGRAPHICS
 70
     1
  9
$MEASUREMENT
 70
     1
  9
$CELWEIGHT
370
    -1
  9
$ENDCAPS
280
     0
  9
$JOINSTYLE
280
     0
  9
$LWDISPLAY
290
     1
  9
$INSUNITS
 70
     4
  9
$HYPERLINKBASE
  1

  9
$STYLESHEET
  1

  9
$XEDIT
290
     1
  9
$CEPSNTYPE
380
     0
  9
$PSTYLEMODE
290
     1
  9
$FINGERPRINTGUID
  2
{12BA273E-49DE-450A-A504-D0F7F31140CB}
  9
$VERSIONGUID
  2
{FAEB1C32-E019-11D5-929B-00C0DF256EC4}
  9
$EXTNAMES
290
     1
  9
$PSVPSCALE
 40
0.0
  9
$OLESTARTUP
290
     0
  0
ENDSEC
  0
SECTION
  2
CLASSES
  0
CLASS
  1
ACDBDICTIONARYWDFLT
  2
AcDbDictionaryWithDefault
  3
ObjectDBX Classes
 90
        0
280
     0
281
     0
  0
CLASS
  1
VISUALSTYLE
  2
AcDbVisualStyle
  3
ObjectDBX Classes
 90
     4095
280
     0
281
     0
  0
CLASS
  1
MATERIAL
  2
AcDbMaterial
  3
ObjectDBX Classes
 90
     1153
280
     0
281
     0
  0
CLASS
  1
SCALE
  2
AcDbScale
  3
ObjectDBX Classes
 90
     1153
280
     0
281
     0
  0
CLASS
  1
TABLESTYLE
  2
AcDbTableStyle
  3
ObjectDBX Classes
 90
     4095
280
     0
281
     0
  0
CLASS
  1
MLEADERSTYLE
  2
AcDbMLeaderStyle
  3
ACDB_MLEADERSTYLE_CLASS
 90
     4095
280
     0
281
     0
  0
CLASS
  1
SUN
  2
AcDbSun
  3
SCENEOE
 90
     1153
280
     0
281
     0
  0
CLASS
  1
ACDBPLACEHOLDER
  2
AcDbPlaceHolder
  3
ObjectDBX Classes
 90
        0
280
     0
281
     0
  0
CLASS
  1
LAYOUT
  2
AcDbLayout
  3
ObjectDBX Classes
 90
        0
280
     0
281
     0
  0
ENDSEC
  0
SECTION
  2
TABLES
  0
TABLE
  2
VPORT
  5
8
330
0
100
AcDbSymbolTable
 70
     1
  0
VPORT
  5
29
330
8
100
AcDbSymbolTableRecord
100
AcDbViewportTableRecord
  2
*Active
 70
     0
 10
0.0
 20
0.0
 11
1.0
 21
1.0
 12
210.0
 22
148.5
 13
0.0
 23
0.0
 14
10.0
 24
10.0
 15
10.0
 25
10.0
 16
0.0
 26
0.0
 36
1.0
 17
0.0
 27
0.0
 37
0.0
 40
297.0
 41
1.4141414141
 42
50.0
 43
0.0
 44
0.0
 50
0.0
 51
0.0
 71
     0
 72
  2000
 73
     1
 74
     3
 75
     0
 76
     0
 77
     0
 78
     0
281
     0
 65
     1
110
0.0
120
0.0
130
0.0
111
1.0
121
0.0
131
0.0
112
0.0
122
1.0
132
0.0
 79
     0
146
0.0
  0
ENDTAB
  0
TABLE
  2
LTYPE
  5
5
330
0
100
AcDbSymbolTable
 70
     6
  0
LTYPE
  5
14
330
5
100
AcDbSymbolTableRecord
100
AcDbLinetypeTableRecord
  2
ByBlock
 70
     0
  3

 72
    65
 73
     0
 40
0.0
  0
LTYPE
  5
15
330
5
100
AcDbSymbolTableRecord
100
AcDbLinetypeTableRecord
  2
ByLayer
 70
     0
  3

 72
    65
 73
     0
 40
0.0
  0
LTYPE
  5
16
330
5
100
AcDbSymbolTableRecord
100
AcDbLinetypeTableRecord
  2
Continuous
 70
     0
  3
Solid line
 72
    65
 73
     0
 40
0.0
  0
LTYPE
  5
6E
330
5
100
AcDbSymbolTableRecord
100
AcDbLinetypeTableRecord
  2
HIDDEN
 70
     0
  3
Hidden __ __ __ __ __ __ __ __ __ __ __ __ __ __
 72
    65
 73
     2
 40
1.905
 49
1.27
 74
     0
 49
-0.635
 74
     0
  0
LTYPE
  5
6F
330
5
100
AcDbSymbolTableRecord
100
AcDbLinetypeTableRecord
  2
PHANTOM
 70
     0
  3
Phantom ______  __  __  ______  __  __  ______
 72
    65
 73
     6
 40
12.7
 49
6.35
 74
     0
 49
-1.27
 74
     0
 49
1.27
 74
     0
 49
-1.27
 74
     0
 49
1.27
 74
     0
 49
-1.27
 74
     0
  0
LTYPE
  5
70
330
5
100
AcDbSymbolTableRecord
100
AcDbLinetypeTableRecord
  2
CENTER
 70
     0
  3
Center ____ _ ____ _ ____ _ ____ _ ____ _ ____
 72
    65
 73
     4
 40
10.16
 49
6.35
 74
     0
 49
-1.27
 74
     0
 49
1.27
 74
     0
 49
-1.27
 74
     0
  0
LTYPE
  5
71
330
5
100
AcDbSymbolTableRecord
100
AcDbLinetypeTableRecord
  2
CENTERX2
 70
     0
  3
Center (2x) ________  __  ________  __  _____
 72
    65
 73
     4
 40
20.32
 49
12.7
 74
     0
 49
-2.54
 74
     0
 49
2.54
 74
     0
 49
-2.54
 74
     0
  0
LTYPE
  5
72
330
5
100
AcDbSymbolTableRecord
100
AcDbLinetypeTableRecord
  2
DOT2
 70
     0
  3
Dot (.5x) ........................................
 72
    65
 73
     2
 40
0.635
 49
0.0
 74
     0
 49
-0.635
 74
     0
  0
ENDTAB
  0
TABLE
  2
LAYER
  5
2
330
0
100
AcDbSymbolTable
 70
     6
  0
LAYER
  5
10
330
2
100
AcDbSymbolTableRecord
100
AcDbLayerTableRecord
  2
0
 70
     0
 62
     7
  6
Continuous
370
    -3
390
F
  0
LAYER
  5
73
330
2
100
AcDbSymbolTableRecord
100
AcDbLayerTableRecord
  2
FORMAT
 70
     0
 62
     7
  6
Continuous
370
    -3
390
F
  0
LAYER
  5
74
330
2
100
AcDbSymbolTableRecord
100
AcDbLayerTableRecord
  2
太線
 70
     0
 62
     7
  6
Continuous
370
    35
390
F
  0
LAYER
  5
75
330
2
100
AcDbSymbolTableRecord
100
AcDbLayerTableRecord
  2
設変0
 70
     0
 62
     7
  6
Continuous
370
    -3
390
F
  0
LAYER
  5
76
330
2
100
AcDbSymbolTableRecord
100
AcDbLayerTableRecord
  2
作図用
 70
     0
 62
     7
  6
Continuous
370
    -3
390
F
  0
LAYER
  5
77
330
2
100
AcDbSymbolTableRecord
100
AcDbLayerTableRecord
  2
点線
 70
     0
 62
     7
  6
HIDDEN
370
    -3
390
F
  0
ENDTAB
  0
TABLE
  2
STYLE
  5
3
330
0
100
AcDbSymbolTable
 70
    31
  0
STYLE
  5
11
330
3
100
AcDbSymbolTableRecord
100
AcDbTextStyleTableRecord
  2
Standard
 70
     0
 40
0.0
 41
1.0
 50
0.0
 71
     0
 42
3.5
  3
txt
  4
bigfont
  0
STYLE
  5
100
330
3
100
AcDbSymbolTableRecord
100
AcDbTextStyleTableRecord
  2
SLDTEXTSTYLE0
 70
     0
 40
0.0
 41
0.7
 50
0.0
 71
     0
 42
3.5
  3
TXT
  4
bigfont
  0
STYLE
  5
103
330
3
100
AcDbSymbolTableRecord
100
AcDbTextStyleTableRecord
  2
SLDTEXTSTYLE1
 70
     0
 40
0.0
 41
0.9347633011
 50
0.0
 71
     0
 42
3.5
  3
TXT
  4
bigfont
  0
STYLE
  5
105
330
3
100
AcDbSymbolTableRecord
100
AcDbTextStyleTableRecord
  2
SLDTEXTSTYLE2
 70
     0
 40
0.0
 41
0.8381134104
 50
0.0
 71
     0
 42
3.5
  3
TXT
  4
bigfont
  0
STYLE
  5
107
330
3
100
AcDbSymbolTableRecord
100
AcDbTextStyleTableRecord
  2
SLDTEXTSTYLE3
 70
     0
 40
0.0
 41
0.8368171345
 50
0.0
 71
     0
 42
3.5
  3
TXT
  4
bigfont
  0
STYLE
  5
109
330
3
100
AcDbSymbolTableRecord
100
AcDbTextStyleTableRecord
  2
SLDTEXTSTYLE4
 70
     0
 40
0.0
 41
0.84
 50
0.0
 71
     0
 42
3.5
  3
TXT
  4
bigfont
  0
STYLE
  5
10D
330
3
100
AcDbSymbolTableRecord
100
AcDbTextStyleTableRecord
  2
SLDTEXTSTYLE5
 70
     0
 40
0.0
 41
0.466666669
 50
0.0
 71
     0
 42
3.5
  3
TXT
  4
bigfont
  0
STYLE
  5
116
330
3
100
AcDbSymbolTableRecord
100
AcDbTextStyleTableRecord
  2
SLDTEXTSTYLE6
 70
     0
 40
0.0
 41
0.8288540274
 50
0.0
 71
     0
 42
3.5
  3
TXT
  4
bigfont
  0
STYLE
  5
118
330
3
100
AcDbSymbolTableRecord
100
AcDbTextStyleTableRecord
  2
SLDTEXTSTYLE7
 70
     0
 40
0.0
 41
0.8088321234
 50
0.0
 71
     0
 42
3.5
  3
TXT
  4
bigfont
  0
STYLE
  5
11A
330
3
100
AcDbSymbolTableRecord
100
AcDbTextStyleTableRecord
  2
SLDTEXTSTYLE8
 70
     0
 40
0.0
 41
0.780339084
 50
0.0
 71
     0
 42
3.5
  3
TXT
  4
bigfont
  0
STYLE
  5
11C
330
3
100
AcDbSymbolTableRecord
100
AcDbTextStyleTableRecord
  2
SLDTEXTSTYLE9
 70
     0
 40
0.0
 41
0.8293860372
 50
0.0
 71
     0
 42
3.5
  3
TXT
  4
bigfont
  0
STYLE
  5
11E
330
3
100
AcDbSymbolTableRecord
100
AcDbTextStyleTableRecord
  2
SLDTEXTSTYLE10
 70
     0
 40
0.0
 41
0.9381829933
 50
0.0
 71
     0
 42
3.5
  3
TXT
  4
bigfont
  0
STYLE
  5
120
330
3
100
AcDbSymbolTableRecord
100
AcDbTextStyleTableRecord
  2
SLDTEXTSTYLE11
 70
     0
 40
0.0
 41
0.851741268
 50
0.0
 71
     0
 42
3.5
  3
TXT
  4
bigfont
  0
STYLE
  5
123
330
3
100
AcDbSymbolTableRecord
100
AcDbTextStyleTableRecord
  2
SLDTEXTSTYLE12
 70
     0
 40
0.0
 41
0.719248152
 50
0.0
 71
     0
 42
3.5
  3
TXT
  4
bigfont
  0
STYLE
  5
125
330
3
100
AcDbSymbolTableRecord
100
AcDbTextStyleTableRecord
  2
SLDTEXTSTYLE13
 70
     0
 40
0.0
 41
0.8121071616
 50
0.0
 71
     0
 42
3.5
  3
TXT
  4
bigfont
  0
STYLE
  5
127
330
3
100
AcDbSymbolTableRecord
100
AcDbTextStyleTableRecord
  2
SLDTEXTSTYLE14
 70
     0
 40
0.0
 41
0.7706230224
 50
0.0
 71
     0
 42
3.5
  3
TXT
  4
bigfont
  0
STYLE
  5
129
330
3
100
AcDbSymbolTableRecord
100
AcDbTextStyleTableRecord
  2
SLDTEXTSTYLE15
 70
     0
 40
0.0
 41
0.7973422044
 50
0.0
 71
     0
 42
3.5
  3
TXT
  4
bigfont
  0
STYLE
  5
12B
330
3
100
AcDbSymbolTableRecord
100
AcDbTextStyleTableRecord
  2
SLDTEXTSTYLE16
 70
     0
 40
0.0
 41
0.858372984
 50
0.0
 71
     0
 42
3.5
  3
TXT
  4
bigfont
  0
STYLE
  5
12D
330
3
100
AcDbSymbolTableRecord
100
AcDbTextStyleTableRecord
  2
SLDTEXTSTYLE17
 70
     0
 40
0.0
 41
0.8213352588
 50
0.0
 71
     0
 42
3.5
  3
TXT
  4
bigfont
  0
STYLE
  5
12F
330
3
100
AcDbSymbolTableRecord
100
AcDbTextStyleTableRecord
  2
SLDTEXTSTYLE18
 70
     0
 40
0.0
 41
0.7910772324
 50
0.0
 71
     0
 42
3.5
  3
TXT
  4
bigfont
  0
STYLE
  5
131
330
3
100
AcDbSymbolTableRecord
100
AcDbTextStyleTableRecord
  2
SLDTEXTSTYLE19
 70
     0
 40
0.0
 41
0.7599353412
 50
0.0
 71
     0
 42
3.5
  3
TXT
  4
bigfont
  0
STYLE
  5
134
330
3
100
AcDbSymbolTableRecord
100
AcDbTextStyleTableRecord
  2
SLDTEXTSTYLE20
 70
     0
 40
0.0
 41
0.7790601336
 50
0.0
 71
     0
 42
3.5
  3
TXT
  4
bigfont
  0
STYLE
  5
136
330
3
100
AcDbSymbolTableRecord
100
AcDbTextStyleTableRecord
  2
SLDTEXTSTYLE21
 70
     0
 40
0.0
 41
0.7251541332
 50
0.0
 71
     0
 42
3.5
  3
TXT
  4
bigfont
  0
STYLE
  5
139
330
3
100
AcDbSymbolTableRecord
100
AcDbTextStyleTableRecord
  2
SLDTEXTSTYLE22
 70
     0
 40
0.0
 41
0.8180131428
 50
0.0
 71
     0
 42
3.5
  3
TXT
  4
bigfont
  0
STYLE
  5
13B
330
3
100
AcDbSymbolTableRecord
100
AcDbTextStyleTableRecord
  2
SLDTEXTSTYLE23
 70
     0
 40
0.0
 41
0.7218730344
 50
0.0
 71
     0
 42
3.5
  3
TXT
  4
bigfont
  0
STYLE
  5
13E
330
3
100
AcDbSymbolTableRecord
100
AcDbTextStyleTableRecord
  2
SLDTEXTSTYLE24
 70
     0
 40
0.0
 41
0.8339245488
 50
0.0
 71
     0
 42
3.5
  3
TXT
  4
bigfont
  0
STYLE
  5
140
330
3
100
AcDbSymbolTableRecord
100
AcDbTextStyleTableRecord
  2
SLDTEXTSTYLE25
 70
     0
 40
0.0
 41
0.7566825756
 50
0.0
 71
     0
 42
3.5
  3
TXT
  4
bigfont
  0
STYLE
  5
14F
330
3
100
AcDbSymbolTableRecord
100
AcDbTextStyleTableRecord
  2
SLDTEXTSTYLE26
 70
     0
 40
0.0
 41
0.860070624
 50
0.0
 71
     0
 42
3.5
  3
TXT
  4
bigfont
  0
STYLE
  5
151
330
3
100
AcDbSymbolTableRecord
100
AcDbTextStyleTableRecord
  2
SLDTEXTSTYLE27
 70
     0
 40
0.0
 41
1.031377368
 50
0.0
 71
     0
 42
3.5
  3
TXT
  4
bigfont
  0
STYLE
  5
15B
330
3
100
AcDbSymbolTableRecord
100
AcDbTextStyleTableRecord
  2
SLDTEXTSTYLE28
 70
     0
 40
0.0
 41
0.956810652
 50
0.0
 71
     0
 42
3.5
  3
TXT
  4
bigfont
  0
STYLE
  5
15D
330
3
100
AcDbSymbolTableRecord
100
AcDbTextStyleTableRecord
  2
SLDTEXTSTYLE29
 70
     0
 40
0.0
 41
0.866247228
 50
0.0
 71
     0
 42
3.5
  3
TXT
  4
bigfont
  0
ENDTAB
  0
TABLE
  2
VIEW
  5
6
330
0
100
AcDbSymbolTable
 70
     0
  0
ENDTAB
  0
TABLE
  2
UCS
  5
7
330
0
100
AcDbSymbolTable
 70
     0
  0
ENDTAB
  0
TABLE
  2
APPID
  5
9
330
0
100
AcDbSymbolTable
 70
     1
  0
APPID
  5
12
330
9
100
AcDbSymbolTableRecord
100
AcDbRegAppTableRecord
  2
ACAD
 70
     0
  0
ENDTAB
  0
TABLE
  2
DIMSTYLE
  5
A
330
0
100
AcDbSymbolTable
 70
     3
100
AcDbDimStyleTable
  0
DIMSTYLE
105
27
330
A
100
AcDbSymbolTableRecord
100
AcDbDimStyleTableRecord
  2
ISO-25
 70
     0
 41
2.5
 42
0.625
 43
3.75
 44
1.25
 73
     0
 74
     0
 77
     1
 78
     8
140
2.5
141
2.5
143
0.0393700787
147
0.625
171
     3
172
     1
178
     0
271
     2
272
     2
274
     3
278
    44
283
     0
284
     8
340
11
  0
DIMSTYLE
105
273
102
{ACAD_REACTORS
330
272
102
}
330
A
100
AcDbSymbolTableRecord
100
AcDbDimStyleTableRecord
  2
SLDDIMSTYLE0
 70
     0
 41
3.0
 44
0.0
 45
0.000000001
 73
     0
 74
     0
 77
     1
 78
    12
 79
     3
140
3.5
147
0.875
173
     1
178
     0
271
     2
272
     2
276
     2
284
    12
340
100
341
274
343
274
344
274
  0
DIMSTYLE
105
28B
330
A
100
AcDbSymbolTableRecord
100
AcDbDimStyleTableRecord
  2
SLDDIMSTYLE1
 70
     0
 41
1.0
 44
0.0
 45
0.000000001
147
0.0
173
     1
178
     0
271
     0
272
     0
276
     2
340
11
341
28C
343
28C
344
28C
  0
ENDTAB
  0
TABLE
  2
BLOCK_RECORD
  5
1
330
0
100
AcDbSymbolTable
 70
    11
  0
BLOCK_RECORD
  5
1F
330
1
100
AcDbSymbolTableRecord
100
AcDbBlockTableRecord
  2
*Model_Space
340
22
  0
BLOCK_RECORD
  5
1B
330
1
100
AcDbSymbolTableRecord
100
AcDbBlockTableRecord
  2
*Paper_Space
340
1E
  0
BLOCK_RECORD
  5
23
330
1
100
AcDbSymbolTableRecord
100
AcDbBlockTableRecord
  2
*Paper_Space0
340
26
  0
BLOCK_RECORD
  5
161
330
1
100
AcDbSymbolTableRecord
100
AcDbBlockTableRecord
  2
SW_NOTE_0
340
0
102
{BLKREFS
331
168
102
}
  0
BLOCK_RECORD
  5
169
330
1
100
AcDbSymbolTableRecord
100
AcDbBlockTableRecord
  2
SW_NOTE_1
340
0
102
{BLKREFS
331
170
102
}
  0
BLOCK_RECORD
  5
173
330
1
100
AcDbSymbolTableRecord
100
AcDbBlockTableRecord
  2
SW_NOTE_2
340
0
102
{BLKREFS
331
17A
102
}
  0
BLOCK_RECORD
  5
17B
330
1
100
AcDbSymbolTableRecord
100
AcDbBlockTableRecord
  2
SW_NOTE_3
340
0
102
{BLKREFS
331
182
102
}
  0
BLOCK_RECORD
  5
184
330
1
100
AcDbSymbolTableRecord
100
AcDbBlockTableRecord
  2
SW_TABLEANNOTATION_0
340
0
102
{BLKREFS
331
1A5
102
}
  0
BLOCK_RECORD
  5
274
330
1
100
AcDbSymbolTableRecord
100
AcDbBlockTableRecord
  2
_OPEN30
340
0
102
{BLKREFS
331
27D
331
27E
102
}
  0
BLOCK_RECORD
  5
27A
330
1
100
AcDbSymbolTableRecord
100
AcDbBlockTableRecord
  2
_D
340
0
  0
BLOCK_RECORD
  5
285
330
1
100
AcDbSymbolTableRecord
100
AcDbBlockTableRecord
  2
SW_NOTE_4
340
0
102
{BLKREFS
331
28A
102
}
  0
BLOCK_RECORD
  5
28C
330
1
100
AcDbSymbolTableRecord
100
AcDbBlockTableRecord
  2
_DOT
340
0
  0
BLOCK_RECORD
  5
295
330
1
100
AcDbSymbolTableRecord
100
AcDbBlockTableRecord
  2
SW_NOTE_5
340
0
102
{BLKREFS
331
29A
102
}
  0
ENDTAB
  0
ENDSEC
  0
SECTION
  2
BLOCKS
  0
BLOCK
  5
20
330
1F
100
AcDbEntity
  8
0
100
AcDbBlockBegin
  2
*Model_Space
 70
     0
 10
0.0
 20
0.0
 30
0.0
  3
*Model_Space
  1

  0
ENDBLK
  5
21
330
1F
100
AcDbEntity
  8
0
100
AcDbBlockEnd
  0
BLOCK
  5
1C
330
1B
100
AcDbEntity
 67
     1
  8
0
100
AcDbBlockBegin
  2
*Paper_Space
 70
     0
 10
0.0
 20
0.0
 30
0.0
  3
*Paper_Space
  1

  0
ENDBLK
  5
1D
330
1B
100
AcDbEntity
 67
     1
  8
0
100
AcDbBlockEnd
  0
BLOCK
  5
24
330
23
100
AcDbEntity
  8
0
100
AcDbBlockBegin
  2
*Paper_Space0
 70
     0
 10
0.0
 20
0.0
 30
0.0
  3
*Paper_Space0
  1

  0
ENDBLK
  5
25
330
23
100
AcDbEntity
  8
0
100
AcDbBlockEnd
  0
BLOCK
  5
162
330
161
100
AcDbEntity
  8
0
100
AcDbBlockBegin
  2
SW_NOTE_0
 70
     0
 10
0.0
 20
0.0
 30
0.0
  3
SW_NOTE_0
  1

  0
LINE
  5
164
330
161
100
AcDbEntity
  8
FORMAT
 62
     0
100
AcDbLine
 10
-1.62941074
 20
0.0
 30
0.0
 11
0.6538638263
 21
3.9547475565
 31
0.0
  0
LINE
  5
165
330
161
100
AcDbEntity
  8
FORMAT
 62
     0
100
AcDbLine
 10
0.6538638263
 20
3.9547475565
 30
0.0
 11
2.9371383926
 21
0.0
 31
0.0
  0
LINE
  5
166
330
161
100
AcDbEntity
  8
FORMAT
 62
     0
100
AcDbLine
 10
2.9371383926
 20
0.0
 30
0.0
 11
-1.62941074
 21
0.0
 31
0.0
  0
MTEXT
  5
167
330
161
100
AcDbEntity
  8
FORMAT
 62
     0
100
AcDbMText
 10
0.0
 20
2.7285267159
 30
0.0
 40
2.1166666667
 41
0.0
 71
     1
 72
     1
  1
1
  7
SLDTEXTSTYLE0
 73
     1
 44
1.0
  0
ENDBLK
  5
163
330
161
100
AcDbEntity
  8
0
100
AcDbBlockEnd
  0
BLOCK
  5
16A
330
169
100
AcDbEntity
  8
0
100
AcDbBlockBegin
  2
SW_NOTE_1
 70
     0
 10
0.0
 20
0.0
 30
0.0
  3
SW_NOTE_1
  1

  0
LINE
  5
16C
330
169
100
AcDbEntity
  8
FORMAT
 62
     0
100
AcDbLine
 10
-1.62941074
 20
0.0
 30
0.0
 11
0.6933063269
 21
4.0230639715
 31
0.0
  0
LINE
  5
16D
330
169
100
AcDbEntity
  8
FORMAT
 62
     0
100
AcDbLine
 10
0.6933063269
 20
4.0230639715
 30
0.0
 11
3.0160233938
 21
0.0
 31
0.0
  0
LINE
  5
16E
330
169
100
AcDbEntity
  8
FORMAT
 62
     0
100
AcDbLine
 10
3.0160233938
 20
0.0
 30
0.0
 11
-1.62941074
 21
0.0
 31
0.0
  0
MTEXT
  5
16F
330
169
100
AcDbEntity
  8
FORMAT
 62
     0
100
AcDbMText
 10
0.0
 20
2.7285267159
 30
0.0
 40
2.1166666667
 41
0.0
 71
     1
 72
     1
  1
0
  7
SLDTEXTSTYLE0
 73
     1
 44
1.0
  0
ENDBLK
  5
16B
330
169
100
AcDbEntity
  8
0
100
AcDbBlockEnd
  0
BLOCK
  5
174
330
173
100
AcDbEntity
  8
0
100
AcDbBlockBegin
  2
SW_NOTE_2
 70
     0
 10
0.0
 20
0.0
 30
0.0
  3
SW_NOTE_2
  1

  0
LINE
  5
176
330
173
100
AcDbEntity
  8
FORMAT
 62
     0
100
AcDbLine
 10
-1.62941074
 20
0.0
 30
0.0
 11
0.6876717089
 21
4.0133045268
 31
0.0
  0
LINE
  5
177
330
173
100
AcDbEntity
  8
FORMAT
 62
     0
100
AcDbLine
 10
0.6876717089
 20
4.0133045268
 30
0.0
 11
3.0047541578
 21
0.0
 31
0.0
  0
LINE
  5
178
330
173
100
AcDbEntity
  8
FORMAT
 62
     0
100
AcDbLine
 10
3.0047541578
 20
0.0
 30
0.0
 11
-1.62941074
 21
0.0
 31
0.0
  0
MTEXT
  5
179
330
173
100
AcDbEntity
  8
FORMAT
 62
     0
100
AcDbMText
 10
0.0
 20
2.7285267159
 30
0.0
 40
2.1166666667
 41
0.0
 71
     1
 72
     1
  1
3
  7
SLDTEXTSTYLE0
 73
     1
 44
1.0
  0
ENDBLK
  5
175
330
173
100
AcDbEntity
  8
0
100
AcDbBlockEnd
  0
BLOCK
  5
17C
330
17B
100
AcDbEntity
  8
0
100
AcDbBlockBegin
  2
SW_NOTE_3
 70
     0
 10
0.0
 20
0.0
 30
0.0
  3
SW_NOTE_3
  1

  0
LINE
  5
17E
330
17B
100
AcDbEntity
  8
FORMAT
 62
     0
100
AcDbLine
 10
-1.62941074
 20
0.0
 30
0.0
 11
0.6876717089
 21
4.0133045268
 31
0.0
  0
LINE
  5
17F
330
17B
100
AcDbEntity
  8
FORMAT
 62
     0
100
AcDbLine
 10
0.6876717089
 20
4.0133045268
 30
0.0
 11
3.0047541578
 21
0.0
 31
0.0
  0
LINE
  5
180
330
17B
100
AcDbEntity
  8
FORMAT
 62
     0
100
AcDbLine
 10
3.0047541578
 20
0.0
 30
0.0
 11
-1.62941074
 21
0.0
 31
0.0
  0
MTEXT
  5
181
330
17B
100
AcDbEntity
  8
FORMAT
 62
     0
100
AcDbMText
 10
0.0
 20
2.7285267159
 30
0.0
 40
2.1166666667
 41
0.0
 71
     1
 72
     1
  1
2
  7
SLDTEXTSTYLE0
 73
     1
 44
1.0
  0
ENDBLK
  5
17D
330
17B
100
AcDbEntity
  8
0
100
AcDbBlockEnd
  0
BLOCK
  5
185
330
184
100
AcDbEntity
  8
0
100
AcDbBlockBegin
  2
SW_TABLEANNOTATION_0
 70
     0
 10
0.0
 20
0.0
 30
0.0
  3
SW_TABLEANNOTATION_0
  1

  0
LINE
  5
187
330
184
100
AcDbEntity
  8
FORMAT
 62
     0
100
AcDbLine
 10
0.0
 20
0.0
 30
0.0
 11
0.0
 21
-20.4084359945
 31
0.0
  0
LINE
  5
188
330
184
100
AcDbEntity
  8
FORMAT
 62
     0
100
AcDbLine
 10
0.0
 20
-20.4084359945
 30
0.0
 11
227.936701283
 21
-20.4084359945
 31
0.0
  0
LINE
  5
189
330
184
100
AcDbEntity
  8
FORMAT
 62
     0
100
AcDbLine
 10
227.936701283
 20
-20.4084359945
 30
0.0
 11
227.936701283
 21
0.0
 31
0.0
  0
LINE
  5
18A
330
184
100
AcDbEntity
  8
FORMAT
 62
     0
100
AcDbLine
 10
227.936701283
 20
0.0
 30
0.0
 11
0.0
 21
0.0
 31
0.0
  0
LINE
  5
18B
330
184
100
AcDbEntity
  8
FORMAT
 62
     0
100
AcDbLine
 10
62.2830238016
 20
0.0
 30
0.0
 11
62.2830238016
 21
-20.4084359945
 31
0.0
  0
LINE
  5
18C
330
184
100
AcDbEntity
  8
FORMAT
 62
     0
100
AcDbLine
 10
73.8038530773
 20
0.0
 30
0.0
 11
73.8038530773
 21
-20.4084359945
 31
0.0
  0
LINE
  5
18D
330
184
100
AcDbEntity
  8
FORMAT
 62
     0
100
AcDbLine
 10
104.0999650312
 20
0.0
 30
0.0
 11
104.0999650312
 21
-20.4084359945
 31
0.0
  0
LINE
  5
18E
330
184
100
AcDbEntity
  8
FORMAT
 62
     0
100
AcDbLine
 10
180.3292523115
 20
0.0
 30
0.0
 11
180.3292523115
 21
-20.4084359945
 31
0.0
  0
LINE
  5
18F
330
184
100
AcDbEntity
  8
FORMAT
 62
     0
100
AcDbLine
 10
210.6253642654
 20
0.0
 30
0.0
 11
210.6253642654
 21
-20.4084359945
 31
0.0
  0
LINE
  5
190
330
184
100
AcDbEntity
  8
FORMAT
 62
     0
100
AcDbLine
 10
0.0
 20
-9.8402768597
 30
0.0
 11
227.936701283
 21
-9.8402768597
 31
0.0
  0
LINE
  5
191
330
184
100
AcDbEntity
  8
FORMAT
 62
     0
100
AcDbLine
 10
62.2830238016
 20
-15.3348249996
 30
0.0
 11
227.936701283
 21
-15.3348249996
 31
0.0
  0
MTEXT
  5
192
330
184
100
AcDbEntity
  8
FORMAT
 62
     0
100
AcDbMText
 10
7.2758866385
 20
-0.4504939175
 30
0.0
 40
3.5
 41
0.0
 71
     1
 72
     1
  1
SUB ASSEMBLY PART NO.
  7
SLDTEXTSTYLE0
 73
     1
 44
1.0
  0
MTEXT
  5
193
330
184
100
AcDbEntity
  8
FORMAT
 62
     0
100
AcDbMText
 10
18.0675534443
 20
-4.9504937238
 30
0.0
 40
3.5
 41
0.0
 71
     1
 72
     1
  1
AND CH CODE
  7
SLDTEXTSTYLE0
 73
     1
 44
1.0
  0
MTEXT
  5
194
330
184
100
AcDbEntity
  8
FORMAT
 62
     0
100
AcDbMText
 10
64.8861466453
 20
-2.7004935878
 30
0.0
 40
3.5
 41
0.0
 71
     1
 72
     1
  1
NO.
  7
SLDTEXTSTYLE0
 73
     1
 44
1.0
  0
MTEXT
  5
195
330
184
100
AcDbEntity
  8
FORMAT
 62
     0
100
AcDbMText
 10
80.1557284558
 20
-0.4504939175
 30
0.0
 40
3.5
 41
0.0
 71
     1
 72
     1
  1
PART NO.
  7
SLDTEXTSTYLE0
 73
     1
 44
1.0
  0
MTEXT
  5
196
330
184
100
AcDbEntity
  8
FORMAT
 62
     0
100
AcDbMText
 10
75.464756299
 20
-4.9504937238
 30
0.0
 40
3.5
 41
0.0
 71
     1
 72
     1
  1
AND CH. CODE
  7
SLDTEXTSTYLE0
 73
     1
 44
1.0
  0
MTEXT
  5
197
330
184
100
AcDbEntity
  8
FORMAT
 62
     0
100
AcDbMText
 10
131.3159971631
 20
-2.7004935878
 30
0.0
 40
3.5
 41
0.0
 71
     1
 72
     1
  1
PART NAME
  7
SLDTEXTSTYLE0
 73
     1
 44
1.0
  0
MTEXT
  5
198
330
184
100
AcDbEntity
  8
FORMAT
 62
     0
100
AcDbMText
 10
188.8759192566
 20
-2.7004935878
 30
0.0
 40
3.5
 41
0.0
 71
     1
 72
     1
  1
COLOR
  7
SLDTEXTSTYLE0
 73
     1
 44
1.0
  0
MTEXT
  5
199
330
184
100
AcDbEntity
  8
FORMAT
 62
     0
100
AcDbMText
 10
215.4407548714
 20
-2.7004935878
 30
0.0
 40
3.5
 41
0.0
 71
     1
 72
     1
  1
QTY
  7
SLDTEXTSTYLE0
 73
     1
 44
1.0
  0
MTEXT
  5
19A
330
184
100
AcDbEntity
  8
FORMAT
 62
     0
100
AcDbMText
 10
19.2001916379
 20
-12.6494250682
 30
0.0
 40
3.5
 41
0.0
 71
     1
 72
     1
  1
YDR79020005
  7
SLDTEXTSTYLE0
 73
     1
 44
1.0
  0
MTEXT
  5
19B
330
184
100
AcDbEntity
  8
FORMAT
 62
     0
100
AcDbMText
 10
66.006632942
 20
-10.1126195707
 30
0.0
 40
3.5
 41
0.0
 71
     1
 72
     1
  1
①
  7
SLDTEXTSTYLE0
 73
     1
 44
1.0
  0
MTEXT
  5
19C
330
184
100
AcDbEntity
  8
FORMAT
 62
     0
100
AcDbMText
 10
77.0105887914
 20
-10.1126195707
 30
0.0
 40
3.5
 41
0.0
 71
     1
 72
     1
  1
YDR79018041
  7
SLDTEXTSTYLE0
 73
     1
 44
1.0
  0
MTEXT
  5
19D
330
184
100
AcDbEntity
  8
FORMAT
 62
     0
100
AcDbMText
 10
107.8975920698
 20
-10.1126195707
 30
0.0
 40
3.5
 41
0.0
 71
     1
 72
     1
  1
EGy防水コネクタ 直線接続 レセプタクル
  7
SLDTEXTSTYLE0
 73
     1
 44
1.0
  0
MTEXT
  5
19E
330
184
100
AcDbEntity
  8
FORMAT
 62
     0
100
AcDbMText
 10
183.0571699443
 20
-10.1126195707
 30
0.0
 40
3.5
 41
0.0
 71
     1
 72
     1
  1
BLACK/GRAY
  7
SLDTEXTSTYLE0
 73
     1
 44
1.0
  0
MTEXT
  5
19F
330
184
100
AcDbEntity
  8
FORMAT
 62
     0
100
AcDbMText
 10
218.2626300255
 20
-10.1126195707
 30
0.0
 40
3.5
 41
0.0
 71
     1
 72
     1
  1
1
  7
SLDTEXTSTYLE0
 73
     1
 44
1.0
  0
MTEXT
  5
1A0
330
184
100
AcDbEntity
  8
FORMAT
 62
     0
100
AcDbMText
 10
66.006632942
 20
-15.3966991381
 30
0.0
 40
3.5
 41
0.0
 71
     1
 72
     1
  1
②
  7
SLDTEXTSTYLE0
 73
     1
 44
1.0
  0
MTEXT
  5
1A1
330
184
100
AcDbEntity
  8
FORMAT
 62
     0
100
AcDbMText
 10
77.0105887914
 20
-15.3966991381
 30
0.0
 40
3.5
 41
0.0
 71
     1
 72
     1
  1
YDR79020001
  7
SLDTEXTSTYLE0
 73
     1
 44
1.0
  0
MTEXT
  5
1A2
330
184
100
AcDbEntity
  8
FORMAT
 62
     0
100
AcDbMText
 10
121.9316211662
 20
-15.3966991381
 30
0.0
 40
3.5
 41
0.0
 71
     1
 72
     1
  1
EGy防水コネクタ プラグ
  7
SLDTEXTSTYLE0
 73
     1
 44
1.0
  0
MTEXT
  5
1A3
330
184
100
AcDbEntity
  8
FORMAT
 62
     0
100
AcDbMText
 10
183.0571699443
 20
-15.3966991381
 30
0.0
 40
3.5
 41
0.0
 71
     1
 72
     1
  1
BLACK/GRAY
  7
SLDTEXTSTYLE0
 73
     1
 44
1.0
  0
MTEXT
  5
1A4
330
184
100
AcDbEntity
  8
FORMAT
 62
     0
100
AcDbMText
 10
218.2626300255
 20
-15.3966991381
 30
0.0
 40
3.5
 41
0.0
 71
     1
 72
     1
  1
1
  7
SLDTEXTSTYLE0
 73
     1
 44
1.0
  0
ENDBLK
  5
186
330
184
100
AcDbEntity
  8
0
100
AcDbBlockEnd
  0
BLOCK
  5
275
330
274
100
AcDbEntity
  8
0
100
AcDbBlockBegin
  2
_OPEN30
 70
     0
 10
0.0
 20
0.0
 30
0.0
  3
_OPEN30
  1

  0
LINE
  5
277
330
274
100
AcDbEntity
  8
0
  6
ByBlock
 62
     0
370
    -2
100
AcDbLine
 10
-1.0
 20
0.267949
 30
0.0
 11
0.0
 21
0.0
 31
0.0
  0
LINE
  5
278
330
274
100
AcDbEntity
  8
0
  6
ByBlock
 62
     0
370
    -2
100
AcDbLine
 10
0.0
 20
0.0
 30
0.0
 11
-1.0
 21
-0.267949
 31
0.0
  0
LINE
  5
279
330
274
100
AcDbEntity
  8
0
  6
ByBlock
 62
     0
370
    -2
100
AcDbLine
 10
0.0
 20
0.0
 30
0.0
 11
-1.0
 21
0.0
 31
0.0
  0
ENDBLK
  5
276
330
274
100
AcDbEntity
  8
0
100
AcDbBlockEnd
  0
BLOCK
  5
27B
330
27A
100
AcDbEntity
  8
0
100
AcDbBlockBegin
  2
_D
 70
     0
 10
0.0
 20
0.0
 30
0.0
  3
_D
  1

  0
INSERT
  5
27D
330
27A
100
AcDbEntity
  8
FORMAT
100
AcDbBlockReference
  2
_OPEN30
 10
128.1954382854
 20
134.2494121116
 30
-0.0823278984
 41
3.0
 42
3.0
 50
180.0
  0
INSERT
  5
27E
330
27A
100
AcDbEntity
  8
FORMAT
100
AcDbBlockReference
  2
_OPEN30
 10
300.0954382854
 20
134.2494121116
 30
-0.0823278984
 41
3.0
 42
3.0
 50
0.0
  0
LINE
  5
27F
330
27A
100
AcDbEntity
  8
FORMAT
100
AcDbLine
 10
128.1954382854
 20
166.7956099835
 30
0.0
 11
128.1954382854
 21
133.2494121116
 31
0.0
  0
LINE
  5
280
330
27A
100
AcDbEntity
  8
FORMAT
100
AcDbLine
 10
300.0954382854
 20
167.8137486411
 30
0.0
 11
300.0954382854
 21
133.2494121116
 31
0.0
  0
LINE
  5
281
330
27A
100
AcDbEntity
  8
FORMAT
100
AcDbLine
 10
128.1954382854
 20
134.2494121116
 30
0.0
 11
300.0954382854
 21
134.2494121116
 31
0.0
  0
MTEXT
  5
282
330
27A
100
AcDbEntity
  8
FORMAT
100
AcDbMText
 10
206.0638410094
 20
138.761148968
 30
0.0
 40
3.5
 41
0.0
 71
     1
 72
     1
  1
約172mm
  7
SLDTEXTSTYLE0
 73
     1
 44
1.0
  0
ENDBLK
  5
27C
330
27A
100
AcDbEntity
  8
0
100
AcDbBlockEnd
  0
BLOCK
  5
286
330
285
100
AcDbEntity
  8
0
100
AcDbBlockBegin
  2
SW_NOTE_4
 70
     0
 10
0.0
 20
0.0
 30
0.0
  3
SW_NOTE_4
  1

  0
CIRCLE
  5
288
330
285
100
AcDbEntity
  8
FORMAT
 62
     0
100
AcDbCircle
 10
-1.0669865014
 20
2.4586533388
 30
0.0
 40
2.680193357725066
  0
MTEXT
  5
289
330
285
100
AcDbEntity
  8
FORMAT
 62
     0
100
AcDbMText
 10
-1.0463267502
 20
4.7175814001
 30
0.0
 40
3.5
 41
0.0
 71
     2
 72
     1
  1
1
  7
SLDTEXTSTYLE0
 73
     1
 44
1.0
  0
ENDBLK
  5
287
330
285
100
AcDbEntity
  8
0
100
AcDbBlockEnd
  0
BLOCK
  5
28D
330
28C
100
AcDbEntity
  8
0
100
AcDbBlockBegin
  2
_DOT
 70
     0
 10
0.0
 20
0.0
 30
0.0
  3
_DOT
  1

  0
POLYLINE
  5
28F
330
28C
100
AcDbEntity
  8
0
  6
ByBlock
 62
     0
100
AcDb2dPolyline
 66
     1
 10
0.0
 20
0.0
 30
0.0
 70
     1
 40
0.5
 41
0.5
  0
VERTEX
  5
291
330
28F
100
AcDbEntity
  8
0
  6
ByBlock
 62
     0
100
AcDbVertex
100
AcDb2dVertex
 10
-0.25
 20
0.0
 30
0.0
 42
1.0
  0
VERTEX
  5
292
330
28F
100
AcDbEntity
  8
0
  6
ByBlock
 62
     0
100
AcDbVertex
100
AcDb2dVertex
 10
0.25
 20
0.0
 30
0.0
 42
1.0
  0
SEQEND
  5
293
330
28F
100
AcDbEntity
  8
0
  6
ByBlock
 62
     0
  0
LINE
  5
290
330
28C
100
AcDbEntity
  8
0
  6
ByBlock
 62
     0
370
    -2
100
AcDbLine
 10
-0.5
 20
0.0
 30
0.0
 11
-1.0
 21
0.0
 31
0.0
  0
ENDBLK
  5
28E
330
28C
100
AcDbEntity
  8
0
100
AcDbBlockEnd
  0
BLOCK
  5
296
330
295
100
AcDbEntity
  8
0
100
AcDbBlockBegin
  2
SW_NOTE_5
 70
     0
 10
0.0
 20
0.0
 30
0.0
  3
SW_NOTE_5
  1

  0
CIRCLE
  5
298
330
295
100
AcDbEntity
  8
FORMAT
 62
     0
100
AcDbCircle
 10
1.1124874628
 20
2.4384027723
 30
0.0
 40
2.680193357725066
  0
MTEXT
  5
299
330
295
100
AcDbEntity
  8
FORMAT
 62
     0
100
AcDbMText
 10
1.133147214
 20
4.6973308336
 30
0.0
 40
3.5
 41
0.0
 71
     2
 72
     1
  1
2
  7
SLDTEXTSTYLE0
 73
     1
 44
1.0
  0
ENDBLK
  5
297
330
295
100
AcDbEntity
  8
0
100
AcDbBlockEnd
  0
ENDSEC
  0
SECTION
  2
ENTITIES
  0
LINE
  5
78
330
1F
100
AcDbEntity
  8
0
  6
Continuous
 62
     7
370
    35
100
AcDbLine
 10
374.8999
 20
45.0
 30
0.0
 11
374.8999
 21
25.0
 31
0.0
  0
LINE
  5
79
330
1F
100
AcDbEntity
  8
0
  6
Continuous
 62
     7
370
    18
100
AcDbLine
 10
248.0
 20
5.0
 30
0.0
 11
248.0
 21
10.0
 31
0.0
  0
LINE
  5
7A
330
1F
100
AcDbEntity
  8
0
  6
Continuous
 62
     7
370
    18
100
AcDbLine
 10
313.0
 20
5.0
 30
0.0
 11
313.0
 21
10.0
 31
0.0
  0
LINE
  5
7B
330
1F
100
AcDbEntity
  8
0
  6
Continuous
 62
     7
370
    18
100
AcDbLine
 10
312.0
 20
5.0
 30
0.0
 11
312.0
 21
10.0
 31
0.0
  0
LINE
  5
7C
330
1F
100
AcDbEntity
  8
0
  6
Continuous
 62
     7
370
    18
100
AcDbLine
 10
311.0
 20
5.0
 30
0.0
 11
311.0
 21
10.0
 31
0.0
  0
LINE
  5
7D
330
1F
100
AcDbEntity
  8
0
  6
Continuous
 62
     7
370
    18
100
AcDbLine
 10
310.0
 20
5.0
 30
0.0
 11
310.0
 21
10.0
 31
0.0
  0
LINE
  5
7E
330
1F
100
AcDbEntity
  8
0
  6
Continuous
 62
     7
370
    18
100
AcDbLine
 10
309.0
 20
5.0
 30
0.0
 11
309.0
 21
10.0
 31
0.0
  0
LINE
  5
7F
330
1F
100
AcDbEntity
  8
0
  6
Continuous
 62
     7
370
    18
100
AcDbLine
 10
308.0
 20
5.0
 30
0.0
 11
308.0
 21
10.0
 31
0.0
  0
LINE
  5
80
330
1F
100
AcDbEntity
  8
0
  6
Continuous
 62
     7
370
    18
100
AcDbLine
 10
304.0
 20
5.0
 30
0.0
 11
304.0
 21
10.0
 31
0.0
  0
LINE
  5
81
330
1F
100
AcDbEntity
  8
0
  6
Continuous
 62
     7
370
    18
100
AcDbLine
 10
303.0
 20
5.0
 30
0.0
 11
303.0
 21
10.0
 31
0.0
  0
LINE
  5
82
330
1F
100
AcDbEntity
  8
0
  6
Continuous
 62
     7
370
    18
100
AcDbLine
 10
302.0
 20
5.0
 30
0.0
 11
302.0
 21
10.0
 31
0.0
  0
LINE
  5
83
330
1F
100
AcDbEntity
  8
0
  6
Continuous
 62
     7
370
    18
100
AcDbLine
 10
301.0
 20
5.0
 30
0.0
 11
301.0
 21
10.0
 31
0.0
  0
LINE
  5
84
330
1F
100
AcDbEntity
  8
0
  6
Continuous
 62
     7
370
    18
100
AcDbLine
 10
300.0
 20
5.0
 30
0.0
 11
300.0
 21
10.0
 31
0.0
  0
LINE
  5
85
330
1F
100
AcDbEntity
  8
0
  6
Continuous
 62
     7
370
    18
100
AcDbLine
 10
299.0
 20
5.0
 30
0.0
 11
299.0
 21
10.0
 31
0.0
  0
LINE
  5
86
330
1F
100
AcDbEntity
  8
0
  6
Continuous
 62
     7
370
    18
100
AcDbLine
 10
298.0
 20
5.0
 30
0.0
 11
298.0
 21
10.0
 31
0.0
  0
LINE
  5
87
330
1F
100
AcDbEntity
  8
0
  6
Continuous
 62
     7
370
    18
100
AcDbLine
 10
294.0
 20
5.0
 30
0.0
 11
294.0
 21
10.0
 31
0.0
  0
LINE
  5
88
330
1F
100
AcDbEntity
  8
0
  6
Continuous
 62
     7
370
    18
100
AcDbLine
 10
293.0
 20
5.0
 30
0.0
 11
293.0
 21
10.0
 31
0.0
  0
LINE
  5
89
330
1F
100
AcDbEntity
  8
0
  6
Continuous
 62
     7
370
    18
100
AcDbLine
 10
292.0
 20
5.0
 30
0.0
 11
292.0
 21
10.0
 31
0.0
  0
LINE
  5
8A
330
1F
100
AcDbEntity
  8
0
  6
Continuous
 62
     7
370
    18
100
AcDbLine
 10
291.0
 20
5.0
 30
0.0
 11
291.0
 21
10.0
 31
0.0
  0
LINE
  5
8B
330
1F
100
AcDbEntity
  8
0
  6
Continuous
 62
     7
370
    18
100
AcDbLine
 10
290.0
 20
5.0
 30
0.0
 11
290.0
 21
10.0
 31
0.0
  0
LINE
  5
8C
330
1F
100
AcDbEntity
  8
0
  6
Continuous
 62
     7
370
    18
100
AcDbLine
 10
289.0
 20
5.0
 30
0.0
 11
289.0
 21
10.0
 31
0.0
  0
LINE
  5
8D
330
1F
100
AcDbEntity
  8
0
  6
Continuous
 62
     7
370
    18
100
AcDbLine
 10
288.0
 20
5.0
 30
0.0
 11
288.0
 21
10.0
 31
0.0
  0
LINE
  5
8E
330
1F
100
AcDbEntity
  8
0
  6
Continuous
 62
     7
370
    18
100
AcDbLine
 10
284.0
 20
5.0
 30
0.0
 11
284.0
 21
10.0
 31
0.0
  0
LINE
  5
8F
330
1F
100
AcDbEntity
  8
0
  6
Continuous
 62
     7
370
    18
100
AcDbLine
 10
283.0
 20
5.0
 30
0.0
 11
283.0
 21
10.0
 31
0.0
  0
LINE
  5
90
330
1F
100
AcDbEntity
  8
0
  6
Continuous
 62
     7
370
    18
100
AcDbLine
 10
282.0
 20
5.0
 30
0.0
 11
282.0
 21
10.0
 31
0.0
  0
LINE
  5
91
330
1F
100
AcDbEntity
  8
0
  6
Continuous
 62
     7
370
    18
100
AcDbLine
 10
281.0
 20
5.0
 30
0.0
 11
281.0
 21
10.0
 31
0.0
  0
LINE
  5
92
330
1F
100
AcDbEntity
  8
0
  6
Continuous
 62
     7
370
    18
100
AcDbLine
 10
280.0
 20
5.0
 30
0.0
 11
280.0
 21
10.0
 31
0.0
  0
LINE
  5
93
330
1F
100
AcDbEntity
  8
0
  6
Continuous
 62
     7
370
    18
100
AcDbLine
 10
279.0
 20
5.0
 30
0.0
 11
279.0
 21
10.0
 31
0.0
  0
LINE
  5
94
330
1F
100
AcDbEntity
  8
0
  6
Continuous
 62
     7
370
    18
100
AcDbLine
 10
278.0
 20
5.0
 30
0.0
 11
278.0
 21
10.0
 31
0.0
  0
LINE
  5
95
330
1F
100
AcDbEntity
  8
0
  6
Continuous
 62
     7
370
    18
100
AcDbLine
 10
274.0
 20
5.0
 30
0.0
 11
274.0
 21
10.0
 31
0.0
  0
LINE
  5
96
330
1F
100
AcDbEntity
  8
0
  6
Continuous
 62
     7
370
    18
100
AcDbLine
 10
273.0
 20
5.0
 30
0.0
 11
273.0
 21
10.0
 31
0.0
  0
LINE
  5
97
330
1F
100
AcDbEntity
  8
0
  6
Continuous
 62
     7
370
    18
100
AcDbLine
 10
272.0
 20
5.0
 30
0.0
 11
272.0
 21
10.0
 31
0.0
  0
LINE
  5
98
330
1F
100
AcDbEntity
  8
0
  6
Continuous
 62
     7
370
    18
100
AcDbLine
 10
271.0
 20
5.0
 30
0.0
 11
271.0
 21
10.0
 31
0.0
  0
LINE
  5
99
330
1F
100
AcDbEntity
  8
0
  6
Continuous
 62
     7
370
    18
100
AcDbLine
 10
270.0
 20
5.0
 30
0.0
 11
270.0
 21
10.0
 31
0.0
  0
LINE
  5
9A
330
1F
100
AcDbEntity
  8
0
  6
Continuous
 62
     7
370
    18
100
AcDbLine
 10
269.0
 20
5.0
 30
0.0
 11
269.0
 21
10.0
 31
0.0
  0
LINE
  5
9B
330
1F
100
AcDbEntity
  8
0
  6
Continuous
 62
     7
370
    18
100
AcDbLine
 10
268.0
 20
5.0
 30
0.0
 11
268.0
 21
10.0
 31
0.0
  0
LINE
  5
9C
330
1F
100
AcDbEntity
  8
0
  6
Continuous
 62
     7
370
    18
100
AcDbLine
 10
264.0
 20
5.0
 30
0.0
 11
264.0
 21
10.0
 31
0.0
  0
LINE
  5
9D
330
1F
100
AcDbEntity
  8
0
  6
Continuous
 62
     7
370
    18
100
AcDbLine
 10
263.0
 20
5.0
 30
0.0
 11
263.0
 21
10.0
 31
0.0
  0
LINE
  5
9E
330
1F
100
AcDbEntity
  8
0
  6
Continuous
 62
     7
370
    18
100
AcDbLine
 10
262.0
 20
5.0
 30
0.0
 11
262.0
 21
10.0
 31
0.0
  0
LINE
  5
9F
330
1F
100
AcDbEntity
  8
0
  6
Continuous
 62
     7
370
    18
100
AcDbLine
 10
261.0
 20
5.0
 30
0.0
 11
261.0
 21
10.0
 31
0.0
  0
LINE
  5
A0
330
1F
100
AcDbEntity
  8
0
  6
Continuous
 62
     7
370
    18
100
AcDbLine
 10
260.0
 20
5.0
 30
0.0
 11
260.0
 21
10.0
 31
0.0
  0
LINE
  5
A1
330
1F
100
AcDbEntity
  8
0
  6
Continuous
 62
     7
370
    18
100
AcDbLine
 10
259.0
 20
5.0
 30
0.0
 11
259.0
 21
10.0
 31
0.0
  0
LINE
  5
A2
330
1F
100
AcDbEntity
  8
0
  6
Continuous
 62
     7
370
    18
100
AcDbLine
 10
258.0
 20
5.0
 30
0.0
 11
258.0
 21
10.0
 31
0.0
  0
LINE
  5
A3
330
1F
100
AcDbEntity
  8
0
  6
Continuous
 62
     7
370
    18
100
AcDbLine
 10
254.0
 20
5.0
 30
0.0
 11
254.0
 21
10.0
 31
0.0
  0
LINE
  5
A4
330
1F
100
AcDbEntity
  8
0
  6
Continuous
 62
     7
370
    18
100
AcDbLine
 10
253.0
 20
5.0
 30
0.0
 11
253.0
 21
10.0
 31
0.0
  0
LINE
  5
A5
330
1F
100
AcDbEntity
  8
0
  6
Continuous
 62
     7
370
    18
100
AcDbLine
 10
252.0
 20
5.0
 30
0.0
 11
252.0
 21
10.0
 31
0.0
  0
LINE
  5
A6
330
1F
100
AcDbEntity
  8
0
  6
Continuous
 62
     7
370
    18
100
AcDbLine
 10
251.0
 20
5.0
 30
0.0
 11
251.0
 21
10.0
 31
0.0
  0
LINE
  5
A7
330
1F
100
AcDbEntity
  8
0
  6
Continuous
 62
     7
370
    18
100
AcDbLine
 10
250.0
 20
5.0
 30
0.0
 11
250.0
 21
10.0
 31
0.0
  0
LINE
  5
A8
330
1F
100
AcDbEntity
  8
0
  6
Continuous
 62
     7
370
    18
100
AcDbLine
 10
249.0
 20
5.0
 30
0.0
 11
249.0
 21
10.0
 31
0.0
  0
LINE
  5
A9
330
1F
100
AcDbEntity
  8
0
  6
Continuous
 62
     7
370
    18
100
AcDbLine
 10
240.0
 20
5.0
 30
0.0
 11
240.0
 21
10.0
 31
0.0
  0
LINE
  5
AA
330
1F
100
AcDbEntity
  8
0
  6
Continuous
 62
     7
370
    18
100
AcDbLine
 10
239.0
 20
5.0
 30
0.0
 11
239.0
 21
10.0
 31
0.0
  0
LINE
  5
AB
330
1F
100
AcDbEntity
  8
0
  6
Continuous
 62
     7
370
    18
100
AcDbLine
 10
243.0
 20
5.0
 30
0.0
 11
243.0
 21
10.0
 31
0.0
  0
LINE
  5
AC
330
1F
100
AcDbEntity
  8
0
  6
Continuous
 62
     7
370
    18
100
AcDbLine
 10
242.0
 20
5.0
 30
0.0
 11
242.0
 21
10.0
 31
0.0
  0
LINE
  5
AD
330
1F
100
AcDbEntity
  8
0
  6
Continuous
 62
     7
370
    18
100
AcDbLine
 10
241.0
 20
5.0
 30
0.0
 11
241.0
 21
10.0
 31
0.0
  0
LINE
  5
AE
330
1F
100
AcDbEntity
  8
0
  6
Continuous
 62
     7
370
    18
100
AcDbLine
 10
314.0
 20
5.0
 30
0.0
 11
314.0
 21
10.0
 31
0.0
  0
LINE
  5
AF
330
1F
100
AcDbEntity
  8
0
  6
Continuous
 62
     7
370
    18
100
AcDbLine
 10
244.0
 20
5.0
 30
0.0
 11
244.0
 21
10.0
 31
0.0
  0
LINE
  5
B0
330
1F
100
AcDbEntity
  8
0
  6
Continuous
 62
     7
370
    18
100
AcDbLine
 10
307.0
 20
5.0
 30
0.0
 11
307.0
 21
10.0
 31
0.0
  0
LINE
  5
B1
330
1F
100
AcDbEntity
  8
0
  6
Continuous
 62
     7
370
    18
100
AcDbLine
 10
297.0
 20
5.0
 30
0.0
 11
297.0
 21
10.0
 31
0.0
  0
LINE
  5
B2
330
1F
100
AcDbEntity
  8
0
  6
Continuous
 62
     7
370
    18
100
AcDbLine
 10
287.0
 20
5.0
 30
0.0
 11
287.0
 21
10.0
 31
0.0
  0
LINE
  5
B3
330
1F
100
AcDbEntity
  8
0
  6
Continuous
 62
     7
370
    18
100
AcDbLine
 10
277.0
 20
5.0
 30
0.0
 11
277.0
 21
10.0
 31
0.0
  0
LINE
  5
B4
330
1F
100
AcDbEntity
  8
0
  6
Continuous
 62
     7
370
    18
100
AcDbLine
 10
267.0
 20
5.0
 30
0.0
 11
267.0
 21
10.0
 31
0.0
  0
LINE
  5
B5
330
1F
100
AcDbEntity
  8
0
  6
Continuous
 62
     7
370
    18
100
AcDbLine
 10
257.0
 20
5.0
 30
0.0
 11
257.0
 21
10.0
 31
0.0
  0
LINE
  5
B6
330
1F
100
AcDbEntity
  8
0
  6
Continuous
 62
     7
370
    18
100
AcDbLine
 10
247.0
 20
5.0
 30
0.0
 11
247.0
 21
10.0
 31
0.0
  0
LINE
  5
B7
330
1F
100
AcDbEntity
  8
0
  6
Continuous
 62
     7
370
    18
100
AcDbLine
 10
238.0
 20
5.0
 30
0.0
 11
238.0
 21
10.0
 31
0.0
  0
LINE
  5
B8
330
1F
100
AcDbEntity
  8
0
  6
Continuous
 62
     7
370
    18
100
AcDbLine
 10
237.0
 20
5.0
 30
0.0
 11
237.0
 21
10.0
 31
0.0
  0
LINE
  5
B9
330
1F
100
AcDbEntity
  8
0
  6
Continuous
 62
     7
370
    18
100
AcDbLine
 10
266.0
 20
5.0
 30
0.0
 11
266.0
 21
10.0
 31
0.0
  0
LINE
  5
BA
330
1F
100
AcDbEntity
  8
0
  6
Continuous
 62
     7
370
    18
100
AcDbLine
 10
256.0
 20
5.0
 30
0.0
 11
256.0
 21
10.0
 31
0.0
  0
LINE
  5
BB
330
1F
100
AcDbEntity
  8
0
  6
Continuous
 62
     7
370
    18
100
AcDbLine
 10
306.0
 20
5.0
 30
0.0
 11
306.0
 21
10.0
 31
0.0
  0
LINE
  5
BC
330
1F
100
AcDbEntity
  8
0
  6
Continuous
 62
     7
370
    18
100
AcDbLine
 10
296.0
 20
5.0
 30
0.0
 11
296.0
 21
10.0
 31
0.0
  0
LINE
  5
BD
330
1F
100
AcDbEntity
  8
0
  6
Continuous
 62
     7
370
    18
100
AcDbLine
 10
286.0
 20
5.0
 30
0.0
 11
286.0
 21
10.0
 31
0.0
  0
LINE
  5
BE
330
1F
100
AcDbEntity
  8
0
  6
Continuous
 62
     7
370
    18
100
AcDbLine
 10
276.0
 20
5.0
 30
0.0
 11
276.0
 21
10.0
 31
0.0
  0
LINE
  5
BF
330
1F
100
AcDbEntity
  8
0
  6
Continuous
 62
     7
370
    18
100
AcDbLine
 10
246.0
 20
5.0
 30
0.0
 11
246.0
 21
10.0
 31
0.0
  0
LINE
  5
C0
330
1F
100
AcDbEntity
  8
0
  6
Continuous
 62
     7
370
    18
100
AcDbLine
 10
236.0
 20
5.0
 30
0.0
 11
236.0
 21
10.0
 31
0.0
  0
LINE
  5
C1
330
1F
100
AcDbEntity
  8
0
  6
Continuous
 62
     7
370
    18
100
AcDbLine
 10
295.0
 20
5.0
 30
0.0
 11
295.0
 21
15.0
 31
0.0
  0
LINE
  5
C2
330
1F
100
AcDbEntity
  8
0
  6
Continuous
 62
     7
370
    18
100
AcDbLine
 10
265.0
 20
5.0
 30
0.0
 11
265.0
 21
15.0
 31
0.0
  0
LINE
  5
C3
330
1F
100
AcDbEntity
  8
0
  6
Continuous
 62
     7
370
    18
100
AcDbLine
 10
305.0
 20
5.0
 30
0.0
 11
305.0
 21
15.0
 31
0.0
  0
LINE
  5
C4
330
1F
100
AcDbEntity
  8
0
  6
Continuous
 62
     7
370
    18
100
AcDbLine
 10
285.0
 20
5.0
 30
0.0
 11
285.0
 21
15.0
 31
0.0
  0
LINE
  5
C5
330
1F
100
AcDbEntity
  8
0
  6
Continuous
 62
     7
370
    18
100
AcDbLine
 10
255.0
 20
5.0
 30
0.0
 11
255.0
 21
15.0
 31
0.0
  0
LINE
  5
C6
330
1F
100
AcDbEntity
  8
0
  6
Continuous
 62
     7
370
    18
100
AcDbLine
 10
245.0
 20
5.0
 30
0.0
 11
245.0
 21
15.0
 31
0.0
  0
LINE
  5
C7
330
1F
100
AcDbEntity
  8
0
  6
Continuous
 62
     7
370
    18
100
AcDbLine
 10
235.0
 20
5.0
 30
0.0
 11
235.0
 21
15.0
 31
0.0
  0
LINE
  5
C8
330
1F
100
AcDbEntity
  8
0
  6
Continuous
 62
     7
370
    18
100
AcDbLine
 10
315.0
 20
5.0
 30
0.0
 11
315.0
 21
15.0
 31
0.0
  0
LINE
  5
C9
330
1F
100
AcDbEntity
  8
0
  6
Continuous
 62
     7
370
    18
100
AcDbLine
 10
275.0
 20
5.0
 30
0.0
 11
275.0
 21
15.0
 31
0.0
  0
LINE
  5
CA
330
1F
100
AcDbEntity
  8
0
  6
Continuous
 62
     7
370
    18
100
AcDbLine
 10
0.099999964
 20
50.0
 30
0.0
 11
0.099999964
 21
0.099999964
 31
0.0
  0
LINE
  5
CB
330
1F
100
AcDbEntity
  8
0
  6
Continuous
 62
     7
370
    18
100
AcDbLine
 10
0.099999964
 20
0.099999964
 30
0.0
 11
50.0
 21
0.099999964
 31
0.0
  0
LINE
  5
CC
330
1F
100
AcDbEntity
  8
0
  6
Continuous
 62
     7
370
    18
100
AcDbLine
 10
0.099999964
 20
296.8999
 30
0.0
 11
0.099999964
 21
247.0
 31
0.0
  0
LINE
  5
CD
330
1F
100
AcDbEntity
  8
0
  6
Continuous
 62
     7
370
    18
100
AcDbLine
 10
0.099999964
 20
296.8999
 30
0.0
 11
50.0
 21
296.8999
 31
0.0
  0
LINE
  5
CE
330
1F
100
AcDbEntity
  8
0
  6
Continuous
 62
     7
370
    18
100
AcDbLine
 10
370.0
 20
296.8999
 30
0.0
 11
419.8999
 21
296.8999
 31
0.0
  0
LINE
  5
CF
330
1F
100
AcDbEntity
  8
0
  6
Continuous
 62
     7
370
    18
100
AcDbLine
 10
419.8999
 20
296.8999
 30
0.0
 11
419.8999
 21
247.0
 31
0.0
  0
LINE
  5
D0
330
1F
100
AcDbEntity
  8
0
  6
Continuous
 62
     7
370
    18
100
AcDbLine
 10
370.0
 20
0.099999964
 30
0.0
 11
419.8999
 21
0.099999964
 31
0.0
  0
LINE
  5
D1
330
1F
100
AcDbEntity
  8
0
  6
Continuous
 62
     7
370
    18
100
AcDbLine
 10
419.8999
 20
50.0
 30
0.0
 11
419.8999
 21
0.099999964
 31
0.0
  0
LINE
  5
D2
330
1F
100
AcDbEntity
  8
FORMAT
  6
Continuous
 62
     7
370
    18
100
AcDbLine
 10
49.8208984447
 20
40.0221803934
 30
0.0
 11
49.8208984447
 21
15.0221803934
 31
0.0
  0
LINE
  5
D3
330
1F
100
AcDbEntity
  8
0
  6
Continuous
 62
     7
370
    18
100
AcDbLine
 10
383.8999
 20
28.0
 30
0.0
 11
396.8999
 21
28.0
 31
0.0
  0
LINE
  5
D4
330
1F
100
AcDbEntity
  8
0
  6
HIDDEN
 62
     7
370
    18
100
AcDbLine
 10
210.0
 20
55.0
 30
0.0
 11
275.0
 21
55.0
 31
0.0
  0
LINE
  5
D5
330
1F
100
AcDbEntity
  8
FORMAT
  6
Continuous
 62
     7
370
    18
100
AcDbLine
 10
24.8208984447
 20
40.0221803934
 30
0.0
 11
24.8208984447
 21
15.0221803934
 31
0.0
  0
LINE
  5
D6
330
1F
100
AcDbEntity
  8
FORMAT
  6
Continuous
 62
     7
370
    18
100
AcDbLine
 10
130.3208984447
 20
40.0221803934
 30
0.0
 11
130.3208984447
 21
15.0221803934
 31
0.0
  0
LINE
  5
D7
330
1F
100
AcDbEntity
  8
0
  6
Continuous
 62
     7
370
    35
100
AcDbLine
 10
145.0
 20
15.0
 30
0.0
 11
145.0
 21
75.0
 31
0.0
  0
LINE
  5
D8
330
1F
100
AcDbEntity
  8
FORMAT
  6
Continuous
 62
     7
370
    18
100
AcDbLine
 10
102.8208984447
 20
40.0221803934
 30
0.0
 11
102.8208984447
 21
15.0221803934
 31
0.0
  0
LINE
  5
D9
330
1F
100
AcDbEntity
  8
FORMAT
  6
Continuous
 62
     7
370
    18
100
AcDbLine
 10
14.8208984447
 20
35.0221803934
 30
0.0
 11
144.8208984447
 21
35.0221803934
 31
0.0
  0
LINE
  5
DA
330
1F
100
AcDbEntity
  8
FORMAT
  6
Continuous
 62
     7
370
    18
100
AcDbLine
 10
14.8208984447
 20
30.0221803934
 30
0.0
 11
144.8208984447
 21
30.0221803934
 31
0.0
  0
LINE
  5
DB
330
1F
100
AcDbEntity
  8
FORMAT
  6
Continuous
 62
     7
370
    18
100
AcDbLine
 10
14.8208984447
 20
25.0221803934
 30
0.0
 11
144.8208984447
 21
25.0221803934
 31
0.0
  0
LINE
  5
DC
330
1F
100
AcDbEntity
  8
FORMAT
  6
Continuous
 62
     7
370
    18
100
AcDbLine
 10
14.8208984447
 20
20.0221803934
 30
0.0
 11
144.8208984447
 21
20.0221803934
 31
0.0
  0
LINE
  5
DD
330
1F
100
AcDbEntity
  8
FORMAT
  6
Continuous
 62
     7
370
    35
100
AcDbLine
 10
14.8208984447
 20
15.0221803934
 30
0.0
 11
144.8208984447
 21
15.0221803934
 31
0.0
  0
LINE
  5
DE
330
1F
100
AcDbEntity
  8
FORMAT
  6
Continuous
 62
     7
370
    50
100
AcDbLine
 10
14.8208984447
 20
40.0221803934
 30
0.0
 11
144.8208984447
 21
40.0221803934
 31
0.0
  0
LINE
  5
DF
330
1F
100
AcDbEntity
  8
0
  6
Continuous
 62
     7
370
    50
100
AcDbLine
 10
15.0
 20
282.0
 30
0.0
 11
15.0
 21
15.0
 31
0.0
  0
LINE
  5
E0
330
1F
100
AcDbEntity
  8
0
  6
HIDDEN
 62
     7
370
    18
100
AcDbLine
 10
210.0
 20
50.0
 30
0.0
 11
275.0
 21
50.0
 31
0.0
  0
LINE
  5
E1
330
1F
100
AcDbEntity
  8
0
  6
Continuous
 62
     7
370
    35
100
AcDbLine
 10
339.94995
 20
65.0
 30
0.0
 11
339.94995
 21
75.0
 31
0.0
  0
LINE
  5
E2
330
1F
100
AcDbEntity
  8
0
  6
Continuous
 62
     7
370
    50
100
AcDbLine
 10
145.0
 20
75.0
 30
0.0
 11
404.8999
 21
75.0
 31
0.0
  0
LINE
  5
E3
330
1F
100
AcDbEntity
  8
0
  6
Continuous
 62
     7
370
    35
100
AcDbLine
 10
210.0
 20
70.0
 30
0.0
 11
210.0
 21
45.0
 31
0.0
  0
LINE
  5
E4
330
1F
100
AcDbEntity
  8
0
  6
Continuous
 62
     7
370
    35
100
AcDbLine
 10
170.0
 20
35.0
 30
0.0
 11
170.0
 21
45.0
 31
0.0
  0
LINE
  5
E5
330
1F
100
AcDbEntity
  8
0
  6
Continuous
 62
     7
370
    35
100
AcDbLine
 10
205.0
 20
35.0
 30
0.0
 11
205.0
 21
45.0
 31
0.0
  0
LINE
  5
E6
330
1F
100
AcDbEntity
  8
0
  6
Continuous
 62
     7
370
    35
100
AcDbLine
 10
230.0
 20
35.0
 30
0.0
 11
230.0
 21
45.0
 31
0.0
  0
LINE
  5
E7
330
1F
100
AcDbEntity
  8
0
  6
Continuous
 62
     7
370
    35
100
AcDbLine
 10
245.0
 20
35.0
 30
0.0
 11
245.0
 21
45.0
 31
0.0
  0
LINE
  5
E8
330
1F
100
AcDbEntity
  8
0
  6
Continuous
 62
     7
370
    35
100
AcDbLine
 10
260.0
 20
35.0
 30
0.0
 11
260.0
 21
45.0
 31
0.0
  0
LINE
  5
E9
330
1F
100
AcDbEntity
  8
0
  6
Continuous
 62
     7
370
    18
100
AcDbLine
 10
175.0
 20
15.0
 30
0.0
 11
175.0
 21
35.0
 31
0.0
  0
LINE
  5
EA
330
1F
100
AcDbEntity
  8
0
  6
Continuous
 62
     7
370
    18
100
AcDbLine
 10
200.0
 20
15.0
 30
0.0
 11
200.0
 21
35.0
 31
0.0
  0
LINE
  5
EB
330
1F
100
AcDbEntity
  8
0
  6
Continuous
 62
     7
370
    18
100
AcDbLine
 10
225.0
 20
15.0
 30
0.0
 11
225.0
 21
35.0
 31
0.0
  0
LINE
  5
EC
330
1F
100
AcDbEntity
  8
0
  6
Continuous
 62
     7
370
    18
100
AcDbLine
 10
250.0
 20
15.0
 30
0.0
 11
250.0
 21
35.0
 31
0.0
  0
LINE
  5
ED
330
1F
100
AcDbEntity
  8
0
  6
Continuous
 62
     7
370
    35
100
AcDbLine
 10
145.0
 20
70.0
 30
0.0
 11
275.0
 21
70.0
 31
0.0
  0
LINE
  5
EE
330
1F
100
AcDbEntity
  8
0
  6
Continuous
 62
     7
370
    18
100
AcDbLine
 10
145.0
 20
65.0
 30
0.0
 11
275.0
 21
65.0
 31
0.0
  0
LINE
  5
EF
330
1F
100
AcDbEntity
  8
0
  6
Continuous
 62
     7
370
    35
100
AcDbLine
 10
145.0
 20
60.0
 30
0.0
 11
275.0
 21
60.0
 31
0.0
  0
LINE
  5
F0
330
1F
100
AcDbEntity
  8
0
  6
Continuous
 62
     7
370
    35
100
AcDbLine
 10
145.0
 20
55.0
 30
0.0
 11
210.0
 21
55.0
 31
0.0
  0
LINE
  5
F1
330
1F
100
AcDbEntity
  8
0
  6
Continuous
 62
     7
370
    35
100
AcDbLine
 10
145.0
 20
50.0
 30
0.0
 11
210.0
 21
50.0
 31
0.0
  0
LINE
  5
F2
330
1F
100
AcDbEntity
  8
0
  6
Continuous
 62
     7
370
    35
100
AcDbLine
 10
145.0
 20
45.0
 30
0.0
 11
275.0
 21
45.0
 31
0.0
  0
LINE
  5
F3
330
1F
100
AcDbEntity
  8
0
  6
Continuous
 62
     7
370
    18
100
AcDbLine
 10
145.0
 20
40.0
 30
0.0
 11
275.0
 21
40.0
 31
0.0
  0
LINE
  5
F4
330
1F
100
AcDbEntity
  8
0
  6
Continuous
 62
     7
370
    35
100
AcDbLine
 10
145.0
 20
35.0
 30
0.0
 11
275.0
 21
35.0
 31
0.0
  0
LINE
  5
F5
330
1F
100
AcDbEntity
  8
0
  6
Continuous
 62
     7
370
    35
100
AcDbLine
 10
145.0
 20
30.0
 30
0.0
 11
275.0
 21
30.0
 31
0.0
  0
LINE
  5
F6
330
1F
100
AcDbEntity
  8
0
  6
Continuous
 62
     7
370
    18
100
AcDbLine
 10
145.0
 20
20.0
 30
0.0
 11
275.0
 21
20.0
 31
0.0
  0
LINE
  5
F7
330
1F
100
AcDbEntity
  8
0
  6
HIDDEN
 62
     7
370
    35
100
AcDbLine
 10
290.46899
 20
55.0
 30
0.0
 11
404.8999
 21
55.0
 31
0.0
  0
LINE
  5
F8
330
1F
100
AcDbEntity
  8
0
  6
Continuous
 62
     7
370
    35
100
AcDbLine
 10
275.0
 20
45.0
 30
0.0
 11
404.8999
 21
45.0
 31
0.0
  0
LINE
  5
F9
330
1F
100
AcDbEntity
  8
0
  6
Continuous
 62
     7
370
    35
100
AcDbLine
 10
275.0
 20
25.0
 30
0.0
 11
404.8999
 21
25.0
 31
0.0
  0
LINE
  5
FA
330
1F
100
AcDbEntity
  8
0
  6
Continuous
 62
     7
370
    35
100
AcDbLine
 10
275.0
 20
65.0
 30
0.0
 11
404.8999
 21
65.0
 31
0.0
  0
LINE
  5
FB
330
1F
100
AcDbEntity
  8
0
  6
Continuous
 62
     7
370
    35
100
AcDbLine
 10
275.0
 20
35.0
 30
0.0
 11
404.8999
 21
35.0
 31
0.0
  0
LINE
  5
FC
330
1F
100
AcDbEntity
  8
0
  6
Continuous
 62
     7
370
    35
100
AcDbLine
 10
275.0
 20
15.0
 30
0.0
 11
275.0
 21
75.0
 31
0.0
  0
LINE
  5
FD
330
1F
100
AcDbEntity
  8
0
  6
Continuous
 62
     7
370
    50
100
AcDbLine
 10
15.0
 20
282.0
 30
0.0
 11
404.8999
 21
282.0
 31
0.0
  0
LINE
  5
FE
330
1F
100
AcDbEntity
  8
0
  6
Continuous
 62
     7
370
    50
100
AcDbLine
 10
404.8999
 20
282.0
 30
0.0
 11
404.8999
 21
15.0
 31
0.0
  0
LINE
  5
FF
330
1F
100
AcDbEntity
  8
0
  6
Continuous
 62
     7
370
    50
100
AcDbLine
 10
15.0
 20
15.0
 30
0.0
 11
404.8999
 21
15.0
 31
0.0
  0
MTEXT
  5
101
330
1F
100
AcDbEntity
  8
FORMAT
100
AcDbMText
 10
216.8362642528
 20
83.9456608276
 30
0.0
 40
4.2333333333
 41
0.0
 71
     1
 72
     1
  1
※コネクタ寸法は、2～5極まで同一寸法です。
  7
SLDTEXTSTYLE0
 73
     1
 44
1.0
  0
MTEXT
  5
102
330
1F
100
AcDbEntity
  8
FORMAT
100
AcDbMText
 10
216.8362642528
 20
90.4611372993
 30
0.0
 40
4.2333333333
 41
0.0
 71
     1
 72
     1
  1
※コネクタ色は、電源用：黒　制御及び複合用：灰　となります。
  7
SLDTEXTSTYLE0
 73
     1
 44
1.0
  0
MTEXT
  5
104
330
1F
100
AcDbEntity
  8
0
  6
Continuous
 62
     7
370
     0
100
AcDbMText
 10
375.4912702375
 20
33.9493166522
 30
0.0
 40
2.6000004
 41
0.0
 71
     1
 72
     1
  1
SET DWG NO.
  7
SLDTEXTSTYLE1
 73
     1
 44
1.0
  0
MTEXT
  5
106
330
1F
100
AcDbEntity
  8
0
  6
Continuous
 62
     7
370
     0
100
AcDbMText
 10
276.47336
 20
39.1785177399
 30
0.0
 40
2.7999992
 41
0.0
 71
     1
 72
     1
  1
CH. CODE
  7
SLDTEXTSTYLE2
 73
     1
 44
1.0
  0
MTEXT
  5
108
330
1F
100
AcDbEntity
  8
0
  6
Continuous
 62
     7
370
     0
100
AcDbMText
 10
276.38037
 20
44.1004537399
 30
0.0
 40
2.7999992
 41
0.0
 71
     1
 72
     1
  1
PART NO.
  7
SLDTEXTSTYLE3
 73
     1
 44
1.0
  0
MTEXT
  5
10A
330
1F
100
AcDbEntity
  8
0
  6
Continuous
 62
     7
370
     0
100
AcDbMText
 10
267.06445
 20
39.1690916888
 30
0.0
 40
3.0819824219
 41
0.0
 71
     1
 72
     1
  1
3
  7
SLDTEXTSTYLE4
 73
     1
 44
1.0
  0
MTEXT
  5
10B
330
1F
100
AcDbEntity
  8
0
  6
Continuous
 62
     7
370
     0
100
AcDbMText
 10
318.04688
 20
14.4453388795
 30
0.0
 40
5.0
 41
0.0
 71
     1
 72
     1
  1
3
  7
SLDTEXTSTYLE0
 73
     1
 44
1.0
  0
MTEXT
  5
10C
330
1F
100
AcDbEntity
  8
0
  6
Continuous
 62
     7
370
     0
100
AcDbMText
 10
218.04688
 20
14.4453388795
 30
0.0
 40
5.0
 41
0.0
 71
     1
 72
     1
  1
2
  7
SLDTEXTSTYLE0
 73
     1
 44
1.0
  0
MTEXT
  5
10E
330
1F
100
AcDbEntity
  8
0
  6
Continuous
 62
     7
370
     0
100
AcDbMText
 10
118.04688
 20
14.4453388795
 30
0.0
 40
5.0
 41
0.0
 71
     1
 72
     1
  1
1
  7
SLDTEXTSTYLE5
 73
     1
 44
1.0
  0
MTEXT
  5
10F
330
1F
100
AcDbEntity
  8
0
  6
Continuous
 62
     7
370
     0
100
AcDbMText
 10
405.44678
 20
112.9453388795
 30
0.0
 40
5.0
 41
0.0
 71
     1
 72
     1
  1
A
  7
SLDTEXTSTYLE0
 73
     1
 44
1.0
  0
MTEXT
  5
110
330
1F
100
AcDbEntity
  8
0
  6
Continuous
 62
     7
370
     0
100
AcDbMText
 10
405.44678
 20
212.9453388795
 30
0.0
 40
5.0
 41
0.0
 71
     1
 72
     1
  1
B
  7
SLDTEXTSTYLE0
 73
     1
 44
1.0
  0
MTEXT
  5
111
330
1F
100
AcDbEntity
  8
0
  6
Continuous
 62
     7
370
     0
100
AcDbMText
 10
318.04688
 20
288.4453388795
 30
0.0
 40
5.0
 41
0.0
 71
     1
 72
     1
  1
3
  7
SLDTEXTSTYLE0
 73
     1
 44
1.0
  0
MTEXT
  5
112
330
1F
100
AcDbEntity
  8
0
  6
Continuous
 62
     7
370
     0
100
AcDbMText
 10
218.04688
 20
288.4453388795
 30
0.0
 40
5.0
 41
0.0
 71
     1
 72
     1
  1
2
  7
SLDTEXTSTYLE0
 73
     1
 44
1.0
  0
MTEXT
  5
113
330
1F
100
AcDbEntity
  8
0
  6
Continuous
 62
     7
370
     0
100
AcDbMText
 10
118.04688
 20
288.4453388795
 30
0.0
 40
5.0
 41
0.0
 71
     1
 72
     1
  1
1
  7
SLDTEXTSTYLE5
 73
     1
 44
1.0
  0
MTEXT
  5
114
330
1F
100
AcDbEntity
  8
0
  6
Continuous
 62
     7
370
     0
100
AcDbMText
 10
10.546875
 20
212.9453388795
 30
0.0
 40
5.0
 41
0.0
 71
     1
 72
     1
  1
B
  7
SLDTEXTSTYLE0
 73
     1
 44
1.0
  0
MTEXT
  5
115
330
1F
100
AcDbEntity
  8
0
  6
Continuous
 62
     7
370
     0
100
AcDbMText
 10
10.546875
 20
112.9453388795
 30
0.0
 40
5.0
 41
0.0
 71
     1
 72
     1
  1
A
  7
SLDTEXTSTYLE0
 73
     1
 44
1.0
  0
MTEXT
  5
117
330
1F
100
AcDbEntity
  8
0
  6
Continuous
 62
     7
370
     0
100
AcDbMText
 10
211.40288
 20
59.2414134143
 30
0.0
 40
3.199995
 41
0.0
 71
     1
 72
     1
  1
TRIAL PART NO.
  7
SLDTEXTSTYLE6
 73
     1
 44
1.0
  0
MTEXT
  5
119
330
1F
100
AcDbEntity
  8
0
  6
Continuous
 62
     7
370
     0
100
AcDbMText
 10
276.22412
 20
34.3027534143
 30
0.0
 40
3.199995
 41
0.0
 71
     1
 72
     1
  1
DWG NO.
  7
SLDTEXTSTYLE7
 73
     1
 44
1.0
  0
MTEXT
  5
11B
330
1F
100
AcDbEntity
  8
0
  6
Continuous
 62
     7
370
     0
100
AcDbMText
 10
276.22412
 20
63.0649764143
 30
0.0
 40
3.199995
 41
0.0
 71
     1
 72
     1
  1
NAME
  7
SLDTEXTSTYLE8
 73
     1
 44
1.0
  0
MTEXT
  5
11D
330
1F
100
AcDbEntity
  8
0
  6
Continuous
 62
     7
370
     0
100
AcDbMText
 10
340.89746
 20
74.5688674143
 30
0.0
 40
3.199995
 41
0.0
 71
     1
 72
     1
  1
TREAT.
  7
SLDTEXTSTYLE9
 73
     1
 44
1.0
  0
MTEXT
  5
11F
330
1F
100
AcDbEntity
  8
0
  6
Continuous
 62
     7
370
     0
100
AcDbMText
 10
340.89746
 20
69.7688734143
 30
0.0
 40
3.199995
 41
0.0
 71
     1
 72
     1
  1
& FIN.
  7
SLDTEXTSTYLE10
 73
     1
 44
1.0
  0
MTEXT
  5
121
330
1F
100
AcDbEntity
  8
0
  6
Continuous
 62
     7
370
     0
100
AcDbMText
 10
276.05688
 20
74.7688794143
 30
0.0
 40
3.199995
 41
0.0
 71
     1
 72
     1
  1
MATL.
  7
SLDTEXTSTYLE11
 73
     1
 44
1.0
  0
MTEXT
  5
122
330
1F
100
AcDbEntity
  8
0
  6
Continuous
 62
     7
370
     0
100
AcDbMText
 10
276.05688
 20
69.9688854143
 30
0.0
 40
3.199995
 41
0.0
 71
     1
 72
     1
  1
SPEC.
  7
SLDTEXTSTYLE11
 73
     1
 44
1.0
  0
MTEXT
  5
124
330
1F
100
AcDbEntity
  8
0
  6
Continuous
 62
     7
370
     0
100
AcDbMText
 10
254.31299
 20
34.3454474143
 30
0.0
 40
3.199995
 41
0.0
 71
     1
 72
     1
  1
DRAWN
  7
SLDTEXTSTYLE12
 73
     1
 44
1.0
  0
MTEXT
  5
126
330
1F
100
AcDbEntity
  8
0
  6
Continuous
 62
     7
370
     0
100
AcDbMText
 10
229.41702
 20
34.3454474143
 30
0.0
 40
3.199995
 41
0.0
 71
     1
 72
     1
  1
DESIGN
  7
SLDTEXTSTYLE13
 73
     1
 44
1.0
  0
MTEXT
  5
128
330
1F
100
AcDbEntity
  8
0
  6
Continuous
 62
     7
370
     0
100
AcDbMText
 10
260.89722
 20
44.2633554143
 30
0.0
 40
3.199995
 41
0.0
 71
     1
 72
     1
  1
ANGLE
  7
SLDTEXTSTYLE14
 73
     1
 44
1.0
  0
MTEXT
  5
12A
330
1F
100
AcDbEntity
  8
0
  6
Continuous
 62
     7
370
     0
100
AcDbMText
 10
249.25284
 20
44.2633554143
 30
0.0
 40
3.199995
 41
0.0
 71
     1
 72
     1
  1
SCL
  7
SLDTEXTSTYLE15
 73
     1
 44
1.0
  0
MTEXT
  5
12C
330
1F
100
AcDbEntity
  8
0
  6
Continuous
 62
     7
370
     0
100
AcDbMText
 10
231.44109
 20
44.2633554143
 30
0.0
 40
3.199995
 41
0.0
 71
     1
 72
     1
  1
UNIT
  7
SLDTEXTSTYLE16
 73
     1
 44
1.0
  0
MTEXT
  5
12E
330
1F
100
AcDbEntity
  8
0
  6
Continuous
 62
     7
370
     0
100
AcDbMText
 10
211.40288
 20
69.3617294143
 30
0.0
 40
3.199995
 41
0.0
 71
     1
 72
     1
  1
CUSTOMER DWG NO.
  7
SLDTEXTSTYLE17
 73
     1
 44
1.0
  0
MTEXT
  5
130
330
1F
100
AcDbEntity
  8
0
  6
Continuous
 62
     7
370
     0
100
AcDbMText
 10
206.54512
 20
44.2633554143
 30
0.0
 40
3.199995
 41
0.0
 71
     1
 72
     1
  1
DWG DATE
  7
SLDTEXTSTYLE18
 73
     1
 44
1.0
  0
MTEXT
  5
132
330
1F
100
AcDbEntity
  8
0
  6
Continuous
 62
     7
370
     0
100
AcDbMText
 10
202.48497
 20
34.3454474143
 30
0.0
 40
3.199995
 41
0.0
 71
     1
 72
     1
  1
CHECKED
  7
SLDTEXTSTYLE19
 73
     1
 44
1.0
  0
MTEXT
  5
133
330
1F
100
AcDbEntity
  8
0
  6
Continuous
 62
     7
370
     0
100
AcDbMText
 10
177.38661
 20
34.3454474143
 30
0.0
 40
3.199995
 41
0.0
 71
     1
 72
     1
  1
CHECKED
  7
SLDTEXTSTYLE19
 73
     1
 44
1.0
  0
MTEXT
  5
135
330
1F
100
AcDbEntity
  8
0
  6
Continuous
 62
     7
370
     0
100
AcDbMText
 10
174.36255
 20
44.2633554143
 30
0.0
 40
3.199995
 41
0.0
 71
     1
 72
     1
  1
DWG SOURCE
  7
SLDTEXTSTYLE20
 73
     1
 44
1.0
  0
MTEXT
  5
137
330
1F
100
AcDbEntity
  8
0
  6
Continuous
 62
     7
370
     0
100
AcDbMText
 10
149.26418
 20
34.3454474143
 30
0.0
 40
3.199995
 41
0.0
 71
     1
 72
     1
  1
APPROVED
  7
SLDTEXTSTYLE21
 73
     1
 44
1.0
  0
MTEXT
  5
138
330
1F
100
AcDbEntity
  8
0
  6
Continuous
 62
     7
370
     0
100
AcDbMText
 10
147.24011
 20
44.2633554143
 30
0.0
 40
3.199995
 41
0.0
 71
     1
 72
     1
  1
DWG TYPE
  7
SLDTEXTSTYLE18
 73
     1
 44
1.0
  0
MTEXT
  5
13A
330
1F
100
AcDbEntity
  8
0
  6
Continuous
 62
     7
370
     0
100
AcDbMText
 10
146.4305
 20
49.3235054143
 30
0.0
 40
3.199995
 41
0.0
 71
     1
 72
     1
  1
VENDOR NO.
  7
SLDTEXTSTYLE22
 73
     1
 44
1.0
  0
MTEXT
  5
13C
330
1F
100
AcDbEntity
  8
0
  6
Continuous
 62
     7
370
     0
100
AcDbMText
 10
146.4305
 20
54.3836714143
 30
0.0
 40
3.199995
 41
0.0
 71
     1
 72
     1
  1
VENDOR
  7
SLDTEXTSTYLE23
 73
     1
 44
1.0
  0
MTEXT
  5
13D
330
1F
100
AcDbEntity
  8
0
  6
Continuous
 62
     7
370
     0
100
AcDbMText
 10
146.4305
 20
59.2414134143
 30
0.0
 40
3.199995
 41
0.0
 71
     1
 72
     1
  1
OFFICE
  7
SLDTEXTSTYLE13
 73
     1
 44
1.0
  0
MTEXT
  5
13F
330
1F
100
AcDbEntity
  8
0
  6
Continuous
 62
     7
370
     0
100
AcDbMText
 10
146.4305
 20
69.3617294143
 30
0.0
 40
3.199995
 41
0.0
 71
     1
 72
     1
  1
CUSTOMER PART NO.
  7
SLDTEXTSTYLE24
 73
     1
 44
1.0
  0
MTEXT
  5
141
330
1F
100
AcDbEntity
  8
0
  6
Continuous
 62
     7
370
     0
100
AcDbMText
 10
146.4305
 20
74.2194864143
 30
0.0
 40
3.199995
 41
0.0
 71
     1
 72
     1
  1
CUSTOMER
  7
SLDTEXTSTYLE25
 73
     1
 44
1.0
  0
MTEXT
  5
142
330
1F
100
AcDbEntity
  8
0
  6
Continuous
 62
     7
370
     0
100
AcDbMText
 10
299.227658137
 20
43.2916858487
 30
0.0
 40
4.7625
 41
0.0
 71
     1
 72
     1
  1
-
  7
SLDTEXTSTYLE0
 73
     1
 44
1.0
  0
MTEXT
  5
143
330
1F
100
AcDbEntity
  8
0
  6
Continuous
 62
     7
370
     0
100
AcDbMText
 10
249.5068390142
 20
39.3843808466
 30
0.0
 40
3.175
 41
0.0
 71
     1
 72
     1
  1
1:1
  7
SLDTEXTSTYLE4
 73
     1
 44
1.0
  0
MTEXT
  5
144
330
1F
100
AcDbEntity
  8
0
  6
Continuous
 62
     7
370
     0
100
AcDbMText
 10
232.9907856572
 20
39.4785758094
 30
0.0
 40
3.175
 41
0.0
 71
     1
 72
     1
  1
ｍｍ
  7
SLDTEXTSTYLE0
 73
     1
 44
1.0
  0
MTEXT
  5
145
330
1F
100
AcDbEntity
  8
0
  6
Continuous
 62
     7
370
     0
100
AcDbMText
 10
181.9568909487
 20
39.2365913784
 30
0.0
 40
3.175
 41
0.0
 71
     1
 72
     1
  1
NEW
  7
SLDTEXTSTYLE4
 73
     1
 44
1.0
  0
MTEXT
  5
146
330
1F
100
AcDbEntity
  8
0
  6
Continuous
 62
     7
370
     0
100
AcDbMText
 10
208.1992330875
 20
39.4785759258
 30
0.0
 40
3.175
 41
0.0
 71
     1
 72
     1
  1
2020.2.20
  7
SLDTEXTSTYLE0
 73
     1
 44
1.0
  0
MTEXT
  5
147
330
1F
100
AcDbEntity
  8
0
  6
Continuous
 62
     7
370
     0
100
AcDbMText
 10
156.9824762728
 20
39.2623320795
 30
0.0
 40
3.175
 41
0.0
 71
     1
 72
     1
  1
R
  7
SLDTEXTSTYLE0
 73
     1
 44
1.0
  0
MTEXT
  5
148
330
1F
100
AcDbEntity
  8
0
  6
Continuous
 62
     7
370
     0
100
AcDbMText
 10
229.5791610766
 20
26.7706336468
 30
0.0
 40
2.9104166667
 41
0.0
 71
     1
 72
     1
  1
W.IIZUKA
  7
SLDTEXTSTYLE0
 73
     1
 44
1.0
  0
MTEXT
  5
149
330
1F
100
AcDbEntity
  8
0
  6
Continuous
 62
     7
370
     0
100
AcDbMText
 10
253.0972007309
 20
19.5472190798
 30
0.0
 40
3.175
 41
0.0
 71
     1
 72
     1
  1
2020.2.20
  7
SLDTEXTSTYLE0
 73
     1
 44
1.0
  0
MTEXT
  5
14A
330
1F
100
AcDbEntity
  8
0
  6
Continuous
 62
     7
370
     0
100
AcDbMText
 10
251.9367392753
 20
26.7706336468
 30
0.0
 40
2.9104166667
 41
0.0
 71
     1
 72
     1
  1
Y.KOBAYASHI
  7
SLDTEXTSTYLE0
 73
     1
 44
1.0
  0
MTEXT
  5
14B
330
1F
100
AcDbEntity
  8
0
  6
Continuous
 62
     7
370
     0
100
AcDbMText
 10
299.1431374184
 20
32.8773898714
 30
0.0
 40
4.7625
 41
0.0
 71
     1
 72
     1
  1
YDR79020005:R
  7
SLDTEXTSTYLE0
 73
     1
 44
1.0
  0
MTEXT
  5
14C
330
1F
100
AcDbEntity
  8
0
  6
Continuous
 62
     7
370
     0
100
AcDbMText
 10
299.1431374184
 20
71.9166447398
 30
0.0
 40
3.175
 41
0.0
 71
     1
 72
     1
  1
-
  7
SLDTEXTSTYLE0
 73
     1
 44
1.0
  0
MTEXT
  5
14D
330
1F
100
AcDbEntity
  8
0
  6
Continuous
 62
     7
370
     0
100
AcDbMText
 10
366.2698338047
 20
71.9166448562
 30
0.0
 40
3.175
 41
0.0
 71
     1
 72
     1
  1
-
  7
SLDTEXTSTYLE0
 73
     1
 44
1.0
  0
MTEXT
  5
14E
330
1F
100
AcDbEntity
  8
0
  6
Continuous
 62
     7
370
     0
100
AcDbMText
 10
150.9462072875
 20
26.7706336468
 30
0.0
 40
2.9104166667
 41
0.0
 71
     1
 72
     1
  1
K.TAZAWA
  7
SLDTEXTSTYLE0
 73
     1
 44
1.0
  0
MTEXT
  5
150
330
1F
100
AcDbEntity
  8
0
  6
Continuous
 62
     7
370
     0
100
AcDbMText
 10
284.98438
 20
22.9453388795
 30
0.0
 40
5.0
 41
0.0
 71
     1
 72
     1
  1
YAZAKI Energy System Corporation
  7
SLDTEXTSTYLE26
 73
     1
 44
1.0
  0
MTEXT
  5
152
330
1F
100
AcDbEntity
  8
0
  6
Continuous
 62
     7
370
     0
100
AcDbMText
 10
375.5809958965
 20
43.8754193167
 30
0.0
 40
2.6000004
 41
0.0
 71
     1
 72
     1
  1
SHEET
  7
SLDTEXTSTYLE27
 73
     1
 44
1.0
  0
MTEXT
  5
153
330
1F
100
AcDbEntity
  8
0
  6
Continuous
 62
     7
370
     0
100
AcDbMText
 10
386.3423960176
 20
39.9950967188
 30
0.0
 40
3.5
 41
0.0
 71
     1
 72
     1
  1
1/1
  7
SLDTEXTSTYLE0
 73
     1
 44
1.0
  0
MTEXT
  5
154
330
1F
100
AcDbEntity
  8
FORMAT
100
AcDbMText
 10
404.8999
 20
15.1562711291
 30
0.0
 40
4.0
 41
0.0
 71
     1
 72
     1
  1
A3
  7
SLDTEXTSTYLE0
 73
     1
 44
1.0
  0
MTEXT
  5
155
330
1F
100
AcDbEntity
  8
FORMAT
100
AcDbMText
 10
179.8121558266
 20
26.7706336468
 30
0.0
 40
2.9104166667
 41
0.0
 71
     1
 72
     1
  1
T.SATOU
  7
SLDTEXTSTYLE0
 73
     1
 44
1.0
  0
MTEXT
  5
156
330
1F
100
AcDbEntity
  8
0
  6
Continuous
 62
     7
370
     0
100
AcDbMText
 10
290.1534386258
 20
62.0980510445
 30
0.0
 40
3.7041666667
 41
0.0
 71
     1
 72
     1
  1
EGy防水コネクタ 直線接続 嵌合図
  7
SLDTEXTSTYLE0
 73
     1
 44
1.0
  0
MTEXT
  5
157
330
1F
100
AcDbEntity
  8
FORMAT
100
AcDbMText
 10
227.808994862
 20
19.4765462527
 30
0.0
 40
3.175
 41
0.0
 71
     1
 72
     1
  1
2020.2.20
  7
SLDTEXTSTYLE0
 73
     1
 44
1.0
  0
MTEXT
  5
158
330
1F
100
AcDbEntity
  8
FORMAT
100
AcDbMText
 10
177.5410212021
 20
19.4765462527
 30
0.0
 40
3.175
 41
0.0
 71
     1
 72
     1
  1
2020.2.20
  7
SLDTEXTSTYLE0
 73
     1
 44
1.0
  0
MTEXT
  5
159
330
1F
100
AcDbEntity
  8
FORMAT
100
AcDbMText
 10
149.0071510516
 20
19.4765462527
 30
0.0
 40
3.175
 41
0.0
 71
     1
 72
     1
  1
2020.2.20
  7
SLDTEXTSTYLE0
 73
     1
 44
1.0
  0
MTEXT
  5
15A
330
1F
100
AcDbEntity
  8
FORMAT
100
AcDbMText
 10
133.6521095384
 20
19.8359382144
 30
0.0
 40
3.199995
 41
0.0
 71
     1
 72
     1
  1
CHKD
  7
SLDTEXTSTYLE8
 73
     1
 44
1.0
  0
MTEXT
  5
15C
330
1F
100
AcDbEntity
  8
FORMAT
100
AcDbMText
 10
114.5052006421
 20
19.8359382144
 30
0.0
 40
3.199995
 41
0.0
 71
     1
 72
     1
  1
NO.
  7
SLDTEXTSTYLE28
 73
     1
 44
1.0
  0
MTEXT
  5
15E
330
1F
100
AcDbEntity
  8
FORMAT
100
AcDbMText
 10
61.7494179401
 20
19.9147477839
 30
0.0
 40
3.199995
 41
0.0
 71
     1
 72
     1
  1
REVISION RECORD
  7
SLDTEXTSTYLE29
 73
     1
 44
1.0
  0
MTEXT
  5
15F
330
1F
100
AcDbEntity
  8
FORMAT
100
AcDbMText
 10
32.3554276801
 20
19.5852502139
 30
0.0
 40
3.199995
 41
0.0
 71
     1
 72
     1
  1
DATE
  7
SLDTEXTSTYLE8
 73
     1
 44
1.0
  0
MTEXT
  5
160
330
1F
100
AcDbEntity
  8
FORMAT
100
AcDbMText
 10
16.7701466801
 20
19.5852502139
 30
0.0
 40
3.199995
 41
0.0
 71
     1
 72
     1
  1
LET
  7
SLDTEXTSTYLE15
 73
     1
 44
1.0
  0
INSERT
  5
168
330
1F
100
AcDbEntity
  8
FORMAT
100
AcDbBlockReference
  2
SW_NOTE_0
 10
19.3188431595
 20
25.6566878125
 30
0.0
  0
INSERT
  5
170
330
1F
100
AcDbEntity
  8
FORMAT
100
AcDbBlockReference
  2
SW_NOTE_1
 10
19.3188431595
 20
20.4883713435
 30
0.0
  0
MTEXT
  5
171
330
1F
100
AcDbEntity
  8
FORMAT
100
AcDbMText
 10
73.5277269703
 20
24.3832139263
 30
0.0
 40
3.175
 41
0.0
 71
     1
 72
     1
  1
NEW
  7
SLDTEXTSTYLE0
 73
     1
 44
1.0
  0
MTEXT
  5
172
330
1F
100
AcDbEntity
  8
FORMAT
100
AcDbMText
 10
27.7693385258
 20
24.3832138099
 30
0.0
 40
3.175
 41
0.0
 71
     1
 72
     1
  1
2020.2.20
  7
SLDTEXTSTYLE0
 73
     1
 44
1.0
  0
INSERT
  5
17A
330
1F
100
AcDbEntity
  8
FORMAT
100
AcDbBlockReference
  2
SW_NOTE_2
 10
19.3193449884
 20
35.7098713969
 30
0.0
  0
INSERT
  5
182
330
1F
100
AcDbEntity
  8
FORMAT
100
AcDbBlockReference
  2
SW_NOTE_3
 10
19.3193449884
 20
30.6098713969
 30
0.0
  0
MTEXT
  5
183
330
1F
100
AcDbEntity
  8
FORMAT
100
AcDbMText
 10
211.7524131863
 20
26.7706336468
 30
0.0
 40
2.9104166667
 41
0.0
 71
     1
 72
     1
  1
-
  7
SLDTEXTSTYLE0
 73
     1
 44
1.0
  0
INSERT
  5
1A5
330
1F
100
AcDbEntity
  8
FORMAT
100
AcDbBlockReference
  2
SW_TABLEANNOTATION_0
 10
176.963198717
 20
282.0
 30
0.0
  0
LINE
  5
1A6
330
1F
100
AcDbEntity
  8
0
  6
Continuous
 62
     7
370
    25
100
AcDbLine
 10
250.5954396265
 20
160.3192370711
 30
0.0
 11
259.4937164622
 21
160.3192370711
 31
0.0
  0
LINE
  5
1A7
330
1F
100
AcDbEntity
  8
0
  6
Continuous
 62
     7
370
    25
100
AcDbLine
 10
259.4937164622
 20
194.3192351936
 30
0.0
 11
250.5954396265
 21
194.3192351936
 31
0.0
  0
ARC
  5
1A8
330
1F
100
AcDbEntity
  8
0
  6
Continuous
 62
     7
370
    25
100
AcDbCircle
 10
259.4937097343
 20
183.8193525529
 30
0.0
 40
23.50011548177218
100
AcDbArc
 50
270.0000164032
 51
290.9314575064
  0
ARC
  5
1A9
330
1F
100
AcDbEntity
  8
0
  6
Continuous
 62
     7
370
    25
100
AcDbCircle
 10
259.4936888904
 20
170.819112323
 30
0.0
 40
23.50012287053662
100
AcDbArc
 50
69.0684949738
 51
89.9999327771
  0
ARC
  5
1AA
330
1F
100
AcDbEntity
  8
0
  6
Continuous
 62
     7
370
    25
100
AcDbCircle
 10
300.0953866247
 20
77.6695137558
 30
0.0
 40
90.14971708726794
100
AcDbArc
 50
90.6285725047
 51
110.9315777093
  0
ARC
  5
1AB
330
1F
100
AcDbEntity
  8
0
  6
Continuous
 62
     7
370
    25
100
AcDbCircle
 10
300.095430348
 20
276.9691806979
 30
0.0
 40
90.14994719274202
100
AcDbArc
 50
249.0684484767
 51
269.3714013092
  0
ARC
  5
1AC
330
1F
100
AcDbEntity
  8
0
  6
Continuous
 62
     7
370
    25
100
AcDbCircle
 10
299.0954226482
 20
168.8137623037
 30
0.0
 40
1.000016710170747
100
AcDbArc
 50
270.6292208406
 51
359.9991986767
  0
ARC
  5
1AD
330
1F
100
AcDbEntity
  8
0
  6
Continuous
 62
     7
370
    25
100
AcDbCircle
 10
299.0954290925
 20
185.8247088843
 30
0.0
 40
1.000010265820923
100
AcDbArc
 50
0.0006495711
 51
89.371144355
  0
LINE
  5
1AE
330
1F
100
AcDbEntity
  8
0
  6
Continuous
 62
     7
370
    25
100
AcDbLine
 10
300.0954393583
 20
170.069234944
 30
0.0
 11
346.193805738
 21
170.069234944
 31
0.0
  0
LINE
  5
1AF
330
1F
100
AcDbEntity
  8
0
  6
Continuous
 62
     7
370
    25
100
AcDbLine
 10
350.4584733682
 20
184.5692345267
 30
0.0
 11
300.0954393583
 21
184.5692345267
 31
0.0
  0
LINE
  5
1B0
330
1F
100
AcDbEntity
  8
0
  6
Continuous
 62
     7
370
    25
100
AcDbLine
 10
218.1954383204
 20
158.2192313252
 30
0.0
 11
245.0954377936
 21
158.2192313252
 31
0.0
  0
LINE
  5
1B1
330
1F
100
AcDbEntity
  8
0
  6
Continuous
 62
     7
370
    25
100
AcDbLine
 10
245.0954377936
 20
196.4192334889
 30
0.0
 11
218.1954383204
 21
196.4192334889
 31
0.0
  0
ARC
  5
1B2
330
1F
100
AcDbEntity
  8
0
  6
Continuous
 62
     7
370
    25
100
AcDbCircle
 10
218.1954386132
 20
195.4192331777
 30
0.0
 40
1.000000311200879
100
AcDbArc
 50
90.0000167765
 51
179.9998848393
  0
ARC
  5
1B3
330
1F
100
AcDbEntity
  8
0
  6
Continuous
 62
     7
370
    25
100
AcDbCircle
 10
218.1954449727
 20
159.2192379959
 30
0.0
 40
1.000006670711812
100
AcDbArc
 50
180.0002660874
 51
269.9996188534
  0
ARC
  5
1B4
330
1F
100
AcDbEntity
  8
0
  6
Continuous
 62
     7
370
    25
100
AcDbCircle
 10
245.0954387325
 20
194.9192338446
 30
0.0
 40
1.499999644251697
100
AcDbArc
 50
11.5370274076
 51
90.0000358622
  0
ARC
  5
1B5
330
1F
100
AcDbEntity
  8
0
  6
Continuous
 62
     7
370
    25
100
AcDbCircle
 10
245.0954318139
 20
159.7192375804
 30
0.0
 40
1.500006255165242
100
AcDbArc
 50
270.0002284093
 51
348.4630568722
  0
ARC
  5
1B6
330
1F
100
AcDbEntity
  8
0
  6
Continuous
 62
     7
370
    25
100
AcDbCircle
 10
247.0550348887
 20
195.3192379277
 30
0.0
 40
0.5000054461673772
100
AcDbArc
 50
191.5371123716
 51
269.9994280719
  0
ARC
  5
1B7
330
1F
100
AcDbEntity
  8
0
  6
Continuous
 62
     7
370
    25
100
AcDbCircle
 10
247.0550354777
 20
159.3192289589
 30
0.0
 40
0.5000070990044365
100
AcDbArc
 50
90.0006394281
 51
168.4622973021
  0
LINE
  5
1B8
330
1F
100
AcDbEntity
  8
0
  6
Continuous
 62
     7
370
    25
100
AcDbLine
 10
247.0550298976
 20
159.8192360578
 30
0.0
 11
250.0954386132
 21
159.8192360578
 31
0.0
  0
LINE
  5
1B9
330
1F
100
AcDbEntity
  8
0
  6
Continuous
 62
     7
370
    25
100
AcDbLine
 10
250.0954386132
 20
194.8192324815
 30
0.0
 11
247.0550298976
 21
194.8192324815
 31
0.0
  0
LINE
  5
1BA
330
1F
100
AcDbEntity
  8
0
  6
Continuous
 62
     7
370
    25
100
AcDbLine
 10
250.0954386132
 20
159.8192360578
 30
0.0
 11
250.5954396265
 21
160.3192370711
 31
0.0
  0
LINE
  5
1BB
330
1F
100
AcDbEntity
  8
0
  6
Continuous
 62
     7
370
    25
100
AcDbLine
 10
250.5954396265
 20
194.3192351936
 30
0.0
 11
250.0954386132
 21
194.8192324815
 31
0.0
  0
LINE
  5
1BC
330
1F
100
AcDbEntity
  8
0
  6
Continuous
 62
     7
370
    25
100
AcDbLine
 10
128.1954352098
 20
184.5692345267
 30
0.0
 11
87.2261528211
 21
184.5692345267
 31
0.0
  0
LINE
  5
1BD
330
1F
100
AcDbEntity
  8
0
  6
Continuous
 62
     7
370
    25
100
AcDbLine
 10
84.3674097495
 20
170.069234944
 30
0.0
 11
128.1954352098
 21
170.069234944
 31
0.0
  0
ARC
  5
1BE
330
1F
100
AcDbEntity
  8
0
  6
Continuous
 62
     7
370
    25
100
AcDbCircle
 10
165.7653634505
 20
164.569228826
 30
0.0
 40
6.999993602603492
100
AcDbArc
 50
245.2299965696
 51
270.000096989
  0
ARC
  5
1BF
330
1F
100
AcDbEntity
  8
0
  6
Continuous
 62
     7
370
    25
100
AcDbCircle
 10
165.7653555653
 20
190.0693123878
 30
0.0
 40
6.999920928287673
100
AcDbArc
 50
89.9998384676
 51
114.7702068318
  0
LINE
  5
1C0
330
1F
100
AcDbEntity
  8
0
  6
Continuous
 62
     7
370
    25
100
AcDbLine
 10
165.7653753
 20
157.5692352234
 30
0.0
 11
180.195440008
 21
157.5692352234
 31
0.0
  0
LINE
  5
1C1
330
1F
100
AcDbEntity
  8
0
  6
Continuous
 62
     7
370
    25
100
AcDbLine
 10
180.195440008
 20
197.069233316
 30
0.0
 11
165.7653753
 21
197.069233316
 31
0.0
  0
ARC
  5
1C2
330
1F
100
AcDbEntity
  8
0
  6
Continuous
 62
     7
370
    25
100
AcDbCircle
 10
128.1954222243
 20
83.1487198306
 30
0.0
 40
82.67051308053696
100
AcDbArc
 50
65.2299338754
 51
88.6464816902
  0
ARC
  5
1C3
330
1F
100
AcDbEntity
  8
0
  6
Continuous
 62
     7
370
    25
100
AcDbCircle
 10
128.1954222243
 20
271.4897449835
 30
0.0
 40
82.67051308053702
100
AcDbArc
 50
271.3535183098
 51
294.7700661246
  0
ARC
  5
1C4
330
1F
100
AcDbEntity
  8
0
  6
Continuous
 62
     7
370
    25
100
AcDbCircle
 10
130.1954293894
 20
167.7956026499
 30
0.0
 40
1.999994179656605
100
AcDbArc
 50
179.9997442274
 51
268.6467084191
  0
ARC
  5
1C5
330
1F
100
AcDbEntity
  8
0
  6
Continuous
 62
     7
370
    25
100
AcDbCircle
 10
130.1954293894
 20
186.8428621642
 30
0.0
 40
1.999994179633493
100
AcDbArc
 50
91.3532915806
 51
180.0001490512
  0
ARC
  5
1C6
330
1F
100
AcDbEntity
  8
0
  6
Continuous
 62
     7
370
    25
100
AcDbCircle
 10
180.6954341271
 20
197.8192380048
 30
0.0
 40
0.4999941191704044
100
AcDbArc
 50
89.9992099829
 51
180.0003631295
  0
ARC
  5
1C7
330
1F
100
AcDbEntity
  8
0
  6
Continuous
 62
     7
370
    25
100
AcDbCircle
 10
180.695427768
 20
156.8192241755
 30
0.0
 40
0.4999877601867767
100
AcDbArc
 50
179.9984812502
 51
270.0015187498
  0
LINE
  5
1C8
330
1F
100
AcDbEntity
  8
0
  6
Continuous
 62
     7
370
    25
100
AcDbLine
 10
182.1954403358
 20
198.3192321239
 30
0.0
 11
180.6954410212
 21
198.3192321239
 31
0.0
  0
LINE
  5
1C9
330
1F
100
AcDbEntity
  8
0
  6
Continuous
 62
     7
370
    25
100
AcDbLine
 10
180.6954410212
 20
156.3192364155
 30
0.0
 11
182.1954403358
 21
156.3192364155
 31
0.0
  0
ARC
  5
1CA
330
1F
100
AcDbEntity
  8
0
  6
Continuous
 62
     7
370
    25
100
AcDbCircle
 10
182.1954472299
 20
156.8192305346
 30
0.0
 40
0.49999411916742
100
AcDbArc
 50
269.9992099783
 51
0.0007900217
  0
ARC
  5
1CB
330
1F
100
AcDbEntity
  8
0
  6
Continuous
 62
     7
370
    25
100
AcDbCircle
 10
182.1954408705
 20
197.8192316454
 30
0.0
 40
0.5000004785415844
100
AcDbArc
 50
0.0003656101
 51
90.0000612775
  0
LINE
  5
1CC
330
1F
100
AcDbEntity
  8
0
  6
Continuous
 62
     7
370
    25
100
AcDbLine
 10
183.2331124978
 20
175.0401167991
 30
0.0
 11
190.4527977394
 21
175.0401167991
 31
0.0
  0
SPLINE
  5
1CD
330
1F
100
AcDbEntity
  8
0
  6
Continuous
 62
     7
370
    25
100
AcDbSpline
210
0.0
220
0.0
230
1.0
 70
     8
 71
     3
 72
    10
 73
     6
 74
     0
 42
0.000000001
 43
0.00000001
 40
0.0
 40
0.0
 40
0.0
 40
0.0
 40
0.0721107616803786
 40
0.9933558194860954
 40
1.0
 40
1.0
 40
1.0
 40
1.0
 10
183.0858368711837
 20
175.0153361680122
 30
0.0
 10
183.0891420819597
 20
175.0167272414523
 30
0.0
 10
183.1346727390004
 20
175.0358898583046
 30
0.0
 10
183.187121068357
 20
175.0486048125036
 30
0.0
 10
183.2325487925943
 20
175.0400587838987
 30
0.0
 10
183.232874079264
 20
175.039997589788
 30
0.0
  0
ARC
  5
1CE
330
1F
100
AcDbEntity
  8
0
  6
Continuous
 62
     7
370
    25
100
AcDbCircle
 10
183.1954418276
 20
193.6618438557
 30
0.0
 40
0.5000004785416128
100
AcDbArc
 50
179.9999387225
 51
269.99963439
  0
SPLINE
  5
1CF
330
1F
100
AcDbEntity
  8
0
  6
Continuous
 62
     7
370
    25
100
AcDbSpline
210
0.0
220
0.0
230
1.0
 70
     8
 71
     3
 72
     9
 73
     5
 74
     0
 42
0.000000001
 43
0.00000001
 40
0.0
 40
0.0
 40
0.0
 40
0.0
 40
0.1493986246359977
 40
1.0
 40
1.0
 40
1.0
 40
1.0
 10
191.2954379158385
 20
193.0475440202417
 30
0.0
 10
191.2552513782616
 20
193.0613682416788
 30
0.0
 10
190.9862627066808
 20
193.1539006961826
 30
0.0
 10
190.6984096391115
 20
193.1570170407066
 30
0.0
 10
190.4535614239342
 20
193.1596678076448
 30
0.0
  0
LINE
  5
1D0
330
1F
100
AcDbEntity
  8
0
  6
Continuous
 62
     7
370
    25
100
AcDbLine
 10
190.4527977394
 20
193.1618433772
 30
0.0
 11
183.1954386371
 21
193.1618433772
 31
0.0
  0
ARC
  5
1D1
330
1F
100
AcDbEntity
  8
0
  6
Continuous
 62
     7
370
    25
100
AcDbCircle
 10
185.1954373823
 20
196.3192302135
 30
0.0
 40
2.499996033244503
100
AcDbArc
 50
179.9998783526
 51
270.00003627
  0
LINE
  5
1D2
330
1F
100
AcDbEntity
  8
0
  6
Continuous
 62
     7
370
    25
100
AcDbLine
 10
191.2954379158
 20
193.8192341803
 30
0.0
 11
185.1954389649
 21
193.8192341803
 31
0.0
  0
ARC
  5
1D3
330
1F
100
AcDbEntity
  8
0
  6
Continuous
 62
     7
370
    25
100
AcDbCircle
 10
183.1954418276
 20
159.482462899
 30
0.0
 40
0.5000004785415844
100
AcDbArc
 50
90.0003656101
 51
180.0000612775
  0
SPLINE
  5
1D4
330
1F
100
AcDbEntity
  8
0
  6
Continuous
 62
     7
370
    25
100
AcDbSpline
210
0.0
220
0.0
230
1.0
 70
     8
 71
     3
 72
     9
 73
     5
 74
     0
 42
0.000000001
 43
0.00000001
 40
0.0
 40
0.0
 40
0.0
 40
0.0
 40
0.193962353347091
 40
1.0
 40
1.0
 40
1.0
 40
1.0
 10
190.453445939935
 20
159.9972453294458
 30
0.0
 10
190.5084678287194
 20
159.9924928369327
 30
0.0
 10
190.7921408602894
 20
159.967990698084
 30
0.0
 10
191.0708155913958
 20
160.04124285939
 30
0.0
 10
191.2954379158385
 20
160.1002868591013
 30
0.0
  0
LINE
  5
1D5
330
1F
100
AcDbEntity
  8
0
  6
Continuous
 62
     7
370
    25
100
AcDbLine
 10
183.1954386371
 20
159.9824633775
 30
0.0
 11
190.4527977394
 21
159.9824633775
 31
0.0
  0
ARC
  5
1D6
330
1F
100
AcDbEntity
  8
0
  6
Continuous
 62
     7
370
    25
100
AcDbCircle
 10
185.1954272218
 20
158.3192391752
 30
0.0
 40
2.499985872755865
100
AcDbArc
 50
138.2951587185
 51
180.0001411135
  0
SPLINE
  5
1D7
330
1F
100
AcDbEntity
  8
0
  6
Continuous
 62
     7
370
    25
100
AcDbSpline
210
0.0
220
0.0
230
1.0
 70
     8
 71
     3
 72
    10
 73
     6
 74
     0
 42
0.000000001
 43
0.00000001
 40
0.0
 40
0.0
 40
0.0
 40
0.0
 40
0.1201484628851006
 40
0.9924520671378627
 40
0.9999999999999999
 40
0.9999999999999999
 40
0.9999999999999999
 40
0.9999999999999999
 10
191.2954379158385
 20
194.5341322897138
 30
0.0
 10
191.2634211751414
 20
194.5460879274745
 30
0.0
 10
190.9989560315612
 20
194.6448440590524
 30
0.0
 10
190.7036117006405
 20
194.6839208662431
 30
0.0
 10
190.4547445548401
 20
194.6555149637562
 30
0.0
 10
190.452609612263
 20
194.6552712796392
 30
0.0
  0
LINE
  5
1D8
330
1F
100
AcDbEntity
  8
0
  6
Continuous
 62
     7
370
    25
100
AcDbLine
 10
190.4527977394
 20
194.6560051618
 30
0.0
 11
183.3289828437
 21
194.6560051618
 31
0.0
  0
ARC
  5
1D9
330
1F
100
AcDbEntity
  8
0
  6
Continuous
 62
     7
370
    25
100
AcDbCircle
 10
208.7954572213
 20
160.3192023907
 30
0.0
 40
3.999965975339103
100
AcDbArc
 50
269.9997378752
 51
321.150979514
  0
ARC
  5
1DA
330
1F
100
AcDbEntity
  8
0
  6
Continuous
 62
     7
370
    25
100
AcDbCircle
 10
208.7954424164
 20
194.3192352143
 30
0.0
 40
3.999996909614919
100
AcDbArc
 50
38.8492325526
 51
90.0000500582
  0
ARC
  5
1DB
330
1F
100
AcDbEntity
  8
0
  6
Continuous
 62
     7
370
    25
100
AcDbCircle
 10
191.7954352146
 20
197.8192348251
 30
0.0
 40
0.4999972988079834
100
AcDbArc
 50
89.9997877952
 51
179.9999987606
  0
ARC
  5
1DC
330
1F
100
AcDbEntity
  8
0
  6
Continuous
 62
     7
370
    25
100
AcDbCircle
 10
191.7954288553
 20
156.819227355
 30
0.0
 40
0.4999909395886356
100
AcDbArc
 50
179.9988456115
 51
270.0009409452
  0
LINE
  5
1DD
330
1F
100
AcDbEntity
  8
0
  6
Continuous
 62
     7
370
    25
100
AcDbLine
 10
191.7954370665
 20
156.3192364155
 30
0.0
 11
208.7954389217
 21
156.3192364155
 31
0.0
  0
LINE
  5
1DE
330
1F
100
AcDbEntity
  8
0
  6
Continuous
 62
     7
370
    25
100
AcDbLine
 10
208.7954389217
 20
198.3192321239
 30
0.0
 11
191.7954370665
 21
198.3192321239
 31
0.0
  0
ARC
  5
1DF
330
1F
100
AcDbEntity
  8
0
  6
Continuous
 62
     7
370
    25
100
AcDbCircle
 10
217.362239453
 20
153.4192336838
 30
0.0
 40
7.000003386547253
100
AcDbArc
 50
91.3654145714
 51
141.1508326543
  0
ARC
  5
1E0
330
1F
100
AcDbEntity
  8
0
  6
Continuous
 62
     7
370
    25
100
AcDbCircle
 10
217.3622263599
 20
201.2192183144
 30
0.0
 40
6.999982813854651
100
AcDbArc
 50
218.8491291264
 51
268.6346886138
  0
SPLINE
  5
1E1
330
1F
100
AcDbEntity
  8
0
  6
Continuous
 62
     7
370
    25
100
AcDbSpline
210
0.0
220
0.0
230
1.0
 70
     8
 71
     3
 72
    11
 73
     7
 74
     0
 42
0.000000001
 43
0.00000001
 40
0.0
 40
0.0
 40
0.0
 40
0.0
 40
0.4077965535910687
 40
0.8076473093912179
 40
0.9865381373059953
 40
1.0
 40
1.0
 40
1.0
 40
1.0
 10
217.2086683212604
 20
191.3068536995115
 30
0.0
 10
217.1408966557437
 20
191.3386020051945
 30
0.0
 10
217.0066738359933
 20
191.4014800100153
 30
0.0
 10
216.8864872374745
 20
191.4313944859483
 30
0.0
 10
216.7961803688141
 20
191.6271983926733
 30
0.0
 10
216.7957818890921
 20
191.5915434847001
 30
0.0
 10
216.7957540013652
 20
191.5890481649103
 30
0.0
  0
SPLINE
  5
1E2
330
1F
100
AcDbEntity
  8
0
  6
Continuous
 62
     7
370
    25
100
AcDbSpline
210
0.0
220
0.0
230
1.0
 70
     8
 71
     3
 72
    12
 73
     8
 74
     0
 42
0.000000001
 43
0.00000001
 40
0.0
 40
0.0
 40
0.0
 40
0.0
 40
0.0090960231381563
 40
0.1420148832297817
 40
0.4598354745414327
 40
0.9676337187963427
 40
1.0
 40
1.0
 40
1.0
 40
1.0
 10
216.7929202196013
 20
163.0269196210565
 30
0.0
 10
216.7930225515167
 20
163.0252381453685
 30
0.0
 10
216.7946202447931
 20
162.9989855105791
 30
0.0
 10
216.85666338567
 20
163.1553897181715
 30
0.0
 10
216.9732292792978
 20
163.1855396643998
 30
0.0
 10
217.1081028267735
 20
163.2976631370062
 30
0.0
 10
217.1995395283604
 20
163.3194431263061
 30
0.0
 10
217.2050183516752
 20
163.3207481680574
 30
0.0
  0
LWPOLYLINE
  5
1E3
330
1F
100
AcDbEntity
  8
0
  6
Continuous
 62
     7
370
    18
100
AcDbPolyline
 90
      330
 70
   128
 43
0.0
 10
87.2261528211
 20
184.5692345267
 10
87.2454945283
 20
184.5205771132
 10
87.2645531135
 20
184.4719564868
 10
87.2832987743
 20
184.4233721821
 10
87.3017315107
 20
184.3748246646
 10
87.3198513227
 20
184.3263144
 10
87.3376582103
 20
184.2778413883
 10
87.3551521736
 20
184.2294065608
 10
87.3723183113
 20
184.1810094519
 10
87.3899612861
 20
184.1303487634
 10
87.4072466331
 20
184.0797309159
 10
87.424159451
 20
184.0291554434
 10
87.4407146411
 20
183.9786232775
 10
87.4568973022
 20
183.9281339524
 10
87.4726925331
 20
183.8776888652
 10
87.4859396654
 20
183.8344852766
 10
87.4989185768
 20
183.7913138187
 10
87.5115994649
 20
183.7481754227
 10
87.523997231
 20
183.7050700886
 10
87.5361118751
 20
183.6619978165
 10
87.5479284959
 20
183.6189590721
 10
87.5594619947
 20
183.5759538552
 10
87.5718150573
 20
183.5286873719
 10
87.5837955909
 20
183.4814618668
 10
87.5954184966
 20
183.4342782712
 10
87.6066837745
 20
183.3871361194
 10
87.6175765233
 20
183.3400358772
 10
87.62715797
 20
183.2972546434
 10
87.6364264923
 20
183.2545078686
 10
87.6453820901
 20
183.2117969496
 10
87.6540396648
 20
183.1691218866
 10
87.6623694139
 20
183.1264822139
 10
87.6703713375
 20
183.0838788627
 10
87.6780603366
 20
183.0413113674
 10
87.684840365
 20
183.0023234105
 10
87.6913223701
 20
182.9633661872
 10
87.6975510555
 20
182.9244401632
 10
87.7034966188
 20
182.8855448729
 10
87.70915906
 20
182.8466812475
 10
87.7145383792
 20
182.8078488214
 10
87.7196345764
 20
182.7690475946
 10
87.7244625526
 20
182.7302784985
 10
87.7289925056
 20
182.691541533
 10
87.7332393365
 20
182.6528362325
 10
87.7371881442
 20
182.6141635282
 10
87.7408538299
 20
182.5755229546
 10
87.7440426784
 20
182.5391203491
 10
87.746963306
 20
182.5027466146
 10
87.7496306138
 20
182.4664022168
 10
87.7520297008
 20
182.4300871557
 10
87.7541605668
 20
182.3938018968
 10
87.7562914329
 20
182.3518555937
 10
87.7580646711
 20
182.3099488719
 10
87.7594653802
 20
182.2680826625
 10
87.7605084615
 20
182.2262565
 10
87.7611790138
 20
182.1844708501
 10
87.7614919382
 20
182.1427257126
 10
87.7614174323
 20
182.1010220191
 10
87.7610300022
 20
182.0628294116
 10
87.7603296476
 20
182.0246712631
 10
87.7593014675
 20
181.9865485048
 10
87.7579603629
 20
181.9484602055
 10
87.7562914329
 20
181.9104077621
 10
87.7542946773
 20
181.8723902432
 10
87.7519849973
 20
181.8344081147
 10
87.7493325906
 20
181.796461842
 10
87.7463672595
 20
181.7585514253
 10
87.7430592018
 20
181.7206768645
 10
87.7394233184
 20
181.6828386253
 10
87.7354596095
 20
181.6450367076
 10
87.7314064937
 20
181.6094285203
 10
87.7270553546
 20
181.5738524636
 10
87.7223912912
 20
181.5383094689
 10
87.7174441057
 20
181.5027990705
 10
87.7121690946
 20
181.467321734
 10
87.7062533336
 20
181.4297302952
 10
87.6999948459
 20
181.392176575
 10
87.6933936315
 20
181.3546601078
 10
87.6864347892
 20
181.3171813591
 10
87.6791183191
 20
181.2797403289
 10
87.6714442211
 20
181.2423379487
 10
87.6639042335
 20
181.2071074126
 10
87.6560215192
 20
181.1719108699
 10
87.6478407817
 20
181.1367487861
 10
87.6393322187
 20
181.1016211612
 10
87.6304958301
 20
181.0665277625
 10
87.6213465171
 20
181.0314692883
 10
87.6118693786
 20
180.9964452731
 10
87.6020644145
 20
180.9614564153
 10
87.5919316249
 20
180.926502482
 10
87.5814561086
 20
180.8915839391
 10
87.570861383
 20
180.8573231427
 10
87.5599388318
 20
180.8230963396
 10
87.5487033563
 20
180.7889042283
 10
87.5371400552
 20
180.754746343
 10
87.5249509054
 20
180.7197607448
 10
87.5124190288
 20
180.6848117011
 10
87.4995295244
 20
180.6498987461
 10
87.4863121944
 20
180.6150218798
 10
87.4727670389
 20
180.5801797053
 10
87.4588791566
 20
180.5453719897
 10
87.4446634488
 20
180.510597569
 10
87.4286596017
 20
180.4723835411
 10
87.4122683244
 20
180.4342083959
 10
87.3955045181
 20
180.3960707365
 10
87.3783532815
 20
180.3579698643
 10
87.3608444171
 20
180.3199046152
 10
87.3429630237
 20
180.2818740579
 10
87.3247240024
 20
180.243877261
 10
87.3061422544
 20
180.2059132932
 10
87.2872028785
 20
180.1679809904
 10
87.2679356771
 20
180.1300796541
 10
87.2486684757
 20
180.0928840274
 10
87.2290883499
 20
180.0557163404
 10
87.2091952997
 20
180.018575429
 10
87.1889893251
 20
179.9814605946
 10
87.1681127983
 20
179.9436966283
 10
87.146923347
 20
179.905957575
 10
87.1254358726
 20
179.8682425032
 10
87.1036354738
 20
179.8305507144
 10
87.0815519529
 20
179.7928805789
 10
87.0595876413
 20
179.7559038131
 10
87.0373402076
 20
179.7189463722
 10
87.014824553
 20
179.6820073249
 10
86.9920555787
 20
179.6450859727
 10
86.9646076398
 20
179.6011533914
 10
86.9368169742
 20
179.5572426962
 10
86.9086686807
 20
179.5133522572
 10
86.8801776605
 20
179.4694806775
 10
86.8513737159
 20
179.4256265601
 10
86.8222419458
 20
179.3817878096
 10
86.7901001411
 20
179.3339797622
 10
86.7576007085
 20
179.286186616
 10
86.7247585492
 20
179.2384059262
 10
86.6915736633
 20
179.1906359466
 10
86.6580609517
 20
179.1428745818
 10
86.624250217
 20
179.0951197362
 10
86.5901265579
 20
179.0473694308
 10
86.5522478061
 20
178.9948469121
 10
86.5140412288
 20
178.9423247427
 10
86.4754919248
 20
178.8898000121
 10
86.4366594987
 20
178.8372702757
 10
86.3975141483
 20
178.784732623
 10
86.3535110193
 20
178.7260843301
 10
86.3091800647
 20
178.6674190406
 10
86.2645510869
 20
178.6087331455
 10
86.2196240859
 20
178.5500226868
 10
86.1744437652
 20
178.4912840556
 10
86.1290250259
 20
178.4325134102
 10
86.0833827691
 20
178.3737070253
 10
86.0375467973
 20
178.3148610592
 10
85.9705511766
 20
178.2291885791
 10
85.9032426315
 20
178.1434128387
 10
85.8356807666
 20
178.0575222545
 10
85.7679400878
 20
177.9715051269
 10
85.7000801998
 20
177.885349989
 10
85.632160707
 20
177.79904517
 10
85.5642412143
 20
177.7125790285
 10
85.5109397607
 20
177.6445206523
 10
85.4576979118
 20
177.5763499062
 10
85.4045752721
 20
177.5080611732
 10
85.3515867429
 20
177.4396488143
 10
85.2987621265
 20
177.3711072054
 10
85.2461461263
 20
177.3024307075
 10
85.1937536435
 20
177.2336136963
 10
85.1528648572
 20
177.1795592393
 10
85.1121548849
 20
177.1254122467
 10
85.0716237264
 20
177.0711700118
 10
85.0313160854
 20
177.0168297843
 10
84.9912170606
 20
176.9623889157
 10
84.9520717101
 20
176.9088195614
 10
84.9131796794
 20
176.8551479071
 10
84.8745260673
 20
176.8013713625
 10
84.8361555772
 20
176.7474874249
 10
84.8021362262
 20
176.6992838564
 10
84.7683552938
 20
176.6509907646
 10
84.7348127799
 20
176.6026062868
 10
84.701538487
 20
176.5541286185
 10
84.6685324149
 20
176.5055559552
 10
84.6357945638
 20
176.4568864345
 10
84.6033547359
 20
176.4081182517
 10
84.5712129312
 20
176.3592495443
 10
84.5437500911
 20
176.3170414232
 10
84.5165256696
 20
176.2747560023
 10
84.4895396667
 20
176.2323921174
 10
84.4628069835
 20
176.1899488373
 10
84.4363276201
 20
176.1474247649
 10
84.4101015764
 20
176.1048187362
 10
84.3856338697
 20
176.0645712819
 10
84.3614045816
 20
176.0242489725
 10
84.3374286132
 20
175.9838508768
 10
84.3137059646
 20
175.9433760634
 10
84.2902366357
 20
175.9028233681
 10
84.2670504289
 20
175.8621919761
 10
84.2441175418
 20
175.8214807231
 10
84.2214677768
 20
175.7806889108
 10
84.1991011339
 20
175.7398152584
 10
84.177017613
 20
175.6988589512
 10
84.1556195455
 20
175.6585525908
 10
84.1345046001
 20
175.6181645068
 10
84.1136876779
 20
175.5776940007
 10
84.0931687789
 20
175.537139792
 10
84.0725902753
 20
175.4957615957
 10
84.0523246961
 20
175.4542949237
 10
84.0323869424
 20
175.4127387284
 10
84.0127919155
 20
175.3710919619
 10
83.9935098129
 20
175.3293539258
 10
83.9749280649
 20
175.2882709587
 10
83.9566592412
 20
175.247098119
 10
83.9387480455
 20
175.2058342425
 10
83.9211795764
 20
175.1644783979
 10
83.9057866769
 20
175.1274748566
 10
83.8906768995
 20
175.0903968094
 10
83.8758502441
 20
175.0532433251
 10
83.8613067108
 20
175.0160137052
 10
83.8470761018
 20
174.978707484
 10
83.8331286149
 20
174.941323963
 10
83.8194940524
 20
174.9038624438
 10
83.8061575132
 20
174.8663219949
 10
83.7937597471
 20
174.8305738764
 10
83.7816600042
 20
174.7947533475
 10
83.7698433833
 20
174.7588601755
 10
83.7583098846
 20
174.7228936618
 10
83.747074409
 20
174.686853108
 10
83.7361220556
 20
174.6507380484
 10
83.7260786729
 20
174.6166181145
 10
83.71628861
 20
174.5824306598
 10
83.7067816692
 20
174.5481763827
 10
83.6975429492
 20
174.513855516
 10
83.688557549
 20
174.4794694567
 10
83.6788568931
 20
174.4410160789
 10
83.6694840627
 20
174.4024844701
 10
83.6604390579
 20
174.3638753286
 10
83.6517218786
 20
174.3251905171
 10
83.643347426
 20
174.2864314327
 10
83.6352858978
 20
174.2475994723
 10
83.6275521951
 20
174.2086958001
 10
83.6201314168
 20
174.1697222786
 10
83.6130533653
 20
174.1306798393
 10
83.6062882381
 20
174.0915703448
 10
83.5998360353
 20
174.052395192
 10
83.593711658
 20
174.0131555451
 10
83.5879002052
 20
173.9738528012
 10
83.5824165779
 20
173.9344888227
 10
83.5772458749
 20
173.8950645412
 10
83.5723731952
 20
173.8555815863
 10
83.5676197248
 20
173.8141572895
 10
83.5632089811
 20
173.7726715254
 10
83.5591409641
 20
173.7311263895
 10
83.5554156738
 20
173.6895232787
 10
83.5520331102
 20
173.6478640558
 10
83.5489783721
 20
173.6061501177
 10
83.5465047794
 20
173.5682650795
 10
83.5442994075
 20
173.5303376662
 10
83.5423771577
 20
173.4923692746
 10
83.5407231288
 20
173.4543608362
 10
83.539352222
 20
173.4163135151
 10
83.5382346349
 20
173.3782291738
 10
83.5372809606
 20
173.3332970506
 10
83.5366998153
 20
173.2883164985
 10
83.5364911991
 20
173.243289846
 10
83.5366551118
 20
173.1982189557
 10
83.5372064548
 20
173.1521841465
 10
83.5381303268
 20
173.1061078934
 10
83.5394565301
 20
173.0599911278
 10
83.5411403613
 20
173.0138371093
 10
83.5432116228
 20
172.9676472349
 10
83.5456703143
 20
172.9214242986
 10
83.5484866338
 20
172.8751696972
 10
83.5516903835
 20
172.8288857592
 10
83.5552666622
 20
172.7825748129
 10
83.5592005687
 20
172.7362387208
 10
83.5635070043
 20
172.689880277
 10
83.5681859689
 20
172.6435004128
 10
83.5732225614
 20
172.5971023878
 10
83.5786316829
 20
172.5506880647
 10
83.5838917928
 20
172.5081289513
 10
83.5894648271
 20
172.4655591278
 10
83.5953358846
 20
172.4229804566
 10
83.6015198665
 20
172.3803948006
 10
83.6079869705
 20
172.3378040223
 10
83.6147520976
 20
172.295209053
 10
83.6224858003
 20
172.2487393161
 10
83.6305473285
 20
172.2022691136
 10
83.6389664846
 20
172.1558003081
 10
83.6477432685
 20
172.1093356935
 10
83.656847878
 20
172.0628766669
 10
83.6663101154
 20
172.0164255565
 10
83.6761150794
 20
171.9699846907
 10
83.6853985029
 20
171.927424646
 10
83.6949650483
 20
171.8848767085
 10
83.7048147159
 20
171.8423418095
 10
83.7149326043
 20
171.7998227431
 10
83.725348516
 20
171.7573199747
 10
83.7360475498
 20
171.7148358328
 10
83.7470148044
 20
171.6723721801
 10
83.7582502799
 20
171.6299299477
 10
83.7697688775
 20
171.587511464
 10
83.7815705972
 20
171.5451176604
 10
83.7936405378
 20
171.5027508652
 10
83.8059786992
 20
171.4604120096
 10
83.8208649593
 20
171.4105513273
 10
83.8361237483
 20
171.3607353484
 10
83.8517550664
 20
171.3109659357
 10
83.8677589136
 20
171.2612463487
 10
83.8834349351
 20
171.2136757886
 10
83.8994387823
 20
171.1661555199
 10
83.9157704549
 20
171.1186883366
 10
83.9324448543
 20
171.0712761013
 10
83.9494321781
 20
171.0239211423
 10
83.9667622285
 20
170.9766262537
 10
83.9844052034
 20
170.929393298
 10
84.0023760038
 20
170.8822246036
 10
84.0215388971
 20
170.8328822022
 10
84.0410743194
 20
170.783615238
 10
84.0609375673
 20
170.7344274363
 10
84.081158443
 20
170.6853211252
 10
84.1017071443
 20
170.6362990989
 10
84.1226134735
 20
170.5873636855
 10
84.1438476282
 20
170.5385181448
 10
84.1654245096
 20
170.4897652706
 10
84.1873441177
 20
170.4411069257
 10
84.2095915513
 20
170.3925468354
 10
84.2321668105
 20
170.3440868622
 10
84.2550698953
 20
170.2957302658
 10
84.2769597011
 20
170.250233761
 10
84.2991475301
 20
170.2048336482
 10
84.3216184812
 20
170.1595322555
 10
84.3443725543
 20
170.1143319113
 10
84.3674097495
 20
170.069234944
  0
LWPOLYLINE
  5
1E4
330
1F
100
AcDbEntity
  8
0
  6
Continuous
 62
     7
370
    18
100
AcDbPolyline
 90
      304
 70
   128
 43
0.0
 10
346.193805738
 20
170.069234944
 10
346.1667601304
 20
170.1224935567
 10
346.1400274473
 20
170.1757265581
 10
346.1136225896
 20
170.2289330168
 10
346.0875455575
 20
170.2821129328
 10
346.0617814498
 20
170.3352653748
 10
346.0363600688
 20
170.3883898771
 10
346.0126970249
 20
170.4384526564
 10
345.9893320041
 20
170.4884893587
 10
345.9662799077
 20
170.538499984
 10
345.9435407358
 20
170.5884836009
 10
345.9211144882
 20
170.6384402095
 10
345.8973918395
 20
170.6920257164
 10
345.8740417199
 20
170.7455790928
 10
345.8510641294
 20
170.7990989415
 10
345.8284590679
 20
170.852584797
 10
345.8062414365
 20
170.9060366592
 10
345.7847837644
 20
170.9584994568
 10
345.7637135225
 20
171.0109282611
 10
345.7430307107
 20
171.0633221408
 10
345.722720428
 20
171.1156801647
 10
345.7049135404
 20
171.162398099
 10
345.6874195772
 20
171.2090866966
 10
345.6702534395
 20
171.2557459576
 10
345.6534002262
 20
171.3023749506
 10
345.6368599372
 20
171.3489736756
 10
345.6206474738
 20
171.395541667
 10
345.6047777372
 20
171.4420784591
 10
345.5892209249
 20
171.4885840519
 10
345.5755714612
 20
171.5302253468
 10
345.5621753173
 20
171.5718405647
 10
345.5490771966
 20
171.6134301713
 10
345.5362323957
 20
171.6549927695
 10
345.5236707168
 20
171.6965283593
 10
345.5116007762
 20
171.7372960737
 10
345.4997990566
 20
171.7780367797
 10
345.488280459
 20
171.8187514087
 10
345.4770300823
 20
171.8594385637
 10
345.465824409
 20
171.9009280531
 10
345.4549167591
 20
171.9423891371
 10
345.4442922311
 20
171.9838208845
 10
345.4339657264
 20
172.0252232952
 10
345.4239372449
 20
172.0665959036
 10
345.4142067867
 20
172.1079391753
 10
345.4047743516
 20
172.1492517134
 10
345.3956697421
 20
172.1904441109
 10
345.3868631559
 20
172.2316053091
 10
345.3783545928
 20
172.2727362393
 10
345.3701589542
 20
172.3138355045
 10
345.3622613387
 20
172.3549031047
 10
345.3548256593
 20
172.3952065548
 10
345.3476731019
 20
172.4354792712
 10
345.340833469
 20
172.4757207884
 10
345.3343067603
 20
172.5159301749
 10
345.3279588657
 20
172.5569279259
 10
345.3219238954
 20
172.5978921494
 10
345.3162167507
 20
172.6388223795
 10
345.3108374315
 20
172.6797190821
 10
345.305800839
 20
172.7205813257
 10
345.3010771709
 20
172.7614086447
 10
345.2966962295
 20
172.8022015048
 10
345.2926431136
 20
172.8429589747
 10
345.2889327245
 20
172.8836810542
 10
345.2855501609
 20
172.9243677436
 10
345.2825252252
 20
172.9650176456
 10
345.279828115
 20
173.0056316918
 10
345.2774886327
 20
173.0462089507
 10
345.2754918771
 20
173.0867494224
 10
345.2739719587
 20
173.1238784595
 10
345.2727351623
 20
173.1609762972
 10
345.2718112903
 20
173.19804247
 10
345.2711705404
 20
173.2350765122
 10
345.2708427148
 20
173.2720784238
 10
345.2708129125
 20
173.309047739
 10
345.2711258369
 20
173.3492529346
 10
345.2717963891
 20
173.3894190146
 10
345.2728245693
 20
173.4295462119
 10
345.2742252784
 20
173.4696335951
 10
345.2759985166
 20
173.5096811643
 10
345.2780995803
 20
173.548974595
 10
345.2805582719
 20
173.5882289102
 10
345.2833745914
 20
173.6274438771
 10
345.2865485387
 20
173.6666194955
 10
345.2901695209
 20
173.7065534433
 10
345.2941779333
 20
173.7464457145
 10
345.2985588746
 20
173.7862958433
 10
345.3033421474
 20
173.826103597
 10
345.3084979492
 20
173.8658687426
 10
345.3140560823
 20
173.9055910474
 10
345.3199867444
 20
173.9452700457
 10
345.3255150752
 20
173.9799534297
 10
345.3313414293
 20
174.0146032861
 10
345.3374807077
 20
174.049219382
 10
345.3439180093
 20
174.0838017175
 10
345.3506533342
 20
174.1183498269
 10
345.3577164846
 20
174.1528637102
 10
345.3650776582
 20
174.1873429017
 10
345.3727517562
 20
174.2217876343
 10
345.3811262088
 20
174.2578349402
 10
345.3898433881
 20
174.2938438291
 10
345.3989181953
 20
174.3298143009
 10
345.408320828
 20
174.3657468213
 10
345.4180661874
 20
174.401641856
 10
345.4281542735
 20
174.4374998706
 10
345.4395387607
 20
174.4765763031
 10
345.4512957769
 20
174.5156101277
 10
345.4634551244
 20
174.55460181
 10
345.4760019021
 20
174.5935520483
 10
345.4889212089
 20
174.6324617742
 10
345.5022130447
 20
174.6713312203
 10
345.5158774095
 20
174.7101615509
 10
345.5287371116
 20
174.7457217751
 10
345.5418948369
 20
174.7812501015
 10
345.5553505855
 20
174.816746763
 10
345.5691043573
 20
174.8522124579
 10
345.5831710534
 20
174.8876476521
 10
345.5975208717
 20
174.9230528111
 10
345.612153812
 20
174.9584286334
 10
345.6270847755
 20
174.9937753519
 10
345.6422839599
 20
175.0290936651
 10
345.6577811675
 20
175.0643838057
 10
345.6735465961
 20
175.0996467052
 10
345.6895802455
 20
175.1348825963
 10
345.708847447
 20
175.1763765095
 10
345.7284722762
 20
175.2178345667
 10
345.7484696346
 20
175.2592576994
 10
345.7688246208
 20
175.3006466059
 10
345.7881961303
 20
175.3393700672
 10
345.8078954654
 20
175.3780650068
 10
345.8278928237
 20
175.4167320067
 10
345.8481882053
 20
175.4553717654
 10
345.86878161
 20
175.493984865
 10
345.889673038
 20
175.5325722369
 10
345.9108326869
 20
175.5711343466
 10
345.9344510274
 20
175.6135243084
 10
345.9584120946
 20
175.6558856322
 10
345.9827009874
 20
175.6982190162
 10
346.0073028045
 20
175.7405255083
 10
346.0322473483
 20
175.7828060398
 10
346.0574899154
 20
175.8250614256
 10
346.0830454069
 20
175.867292597
 10
346.1089138227
 20
175.9095003689
 10
346.1350802617
 20
175.9516859055
 10
346.1615298229
 20
175.9938499052
 10
346.1877856689
 20
176.0352409072
 10
346.214324637
 20
176.0766129336
 10
346.241131826
 20
176.1179667991
 10
346.2681923347
 20
176.1593035516
 10
346.2992612558
 20
176.2062571105
 10
346.3306431013
 20
176.2531908788
 10
346.3623527723
 20
176.3001059042
 10
346.3943604665
 20
176.3470035838
 10
346.426666184
 20
176.3938850816
 10
346.4592699247
 20
176.4407517947
 10
346.4921567874
 20
176.4876048872
 10
346.5253267722
 20
176.5344455815
 10
346.5603594022
 20
176.5835050354
 10
346.5956751542
 20
176.6325537209
 10
346.6312740283
 20
176.6815931513
 10
346.6671411233
 20
176.7306248401
 10
346.7032615381
 20
176.7796501843
 10
346.7396352725
 20
176.8286705809
 10
346.7862908082
 20
176.8910554564
 10
346.8333039718
 20
176.9534377416
 10
346.8806896644
 20
177.0158204634
 10
346.9284031825
 20
177.0782066049
 10
346.9764296251
 20
177.1405991493
 10
347.024768992
 20
177.2030010942
 10
347.0820937591
 20
177.2765623935
 10
347.1397761541
 20
177.3501458227
 10
347.1978012758
 20
177.4237562821
 10
347.2561244207
 20
177.4973986647
 10
347.3259065586
 20
177.5851166202
 10
347.3960314231
 20
177.6728950243
 10
347.4664394098
 20
177.7607421717
 10
347.5370709138
 20
177.8486663569
 10
347.607896133
 20
177.9366758163
 10
347.6788554626
 20
178.0247788155
 10
347.7466706472
 20
178.108972006
 10
347.8145156341
 20
178.1932651973
 10
347.8823457199
 20
178.277665549
 10
347.950116201
 20
178.3621802787
 10
348.0177972751
 20
178.4468165459
 10
348.0853144365
 20
178.5315814521
 10
348.1526676851
 20
178.6164824478
 10
348.2197676139
 20
178.701526518
 10
348.2785973983
 20
178.7764894869
 10
348.3371887641
 20
178.8515736442
 10
348.3954970079
 20
178.9267841121
 10
348.4535072284
 20
179.0021256637
 10
348.4988514619
 20
179.0614177333
 10
348.543972178
 20
179.1207961831
 10
348.5888544755
 20
179.1802634578
 10
348.6334983545
 20
179.2398217693
 10
348.6786786752
 20
179.3005590188
 10
348.7235609727
 20
179.3613955705
 10
348.768145247
 20
179.4223343348
 10
348.8124165969
 20
179.4833774073
 10
348.8563452201
 20
179.5445273491
 10
348.8906178909
 20
179.5926504163
 10
348.9246670442
 20
179.6408424014
 10
348.9584777789
 20
179.6891042357
 10
348.9920500951
 20
179.7374373162
 10
349.0253839927
 20
179.785842807
 10
349.0584645706
 20
179.8343221052
 10
349.0912769275
 20
179.8828763748
 10
349.1238359647
 20
179.9315065472
 10
349.1560969787
 20
179.9802140193
 10
349.1880897718
 20
180.0290001882
 10
349.2192182975
 20
180.0769926375
 10
349.2500637012
 20
180.1250633178
 10
349.2806259828
 20
180.1732131606
 10
349.31087534
 20
180.22144333
 10
349.3385318952
 20
180.2660611319
 10
349.3659351306
 20
180.3107494814
 10
349.393055244
 20
180.35550931
 10
349.4198922353
 20
180.4003413161
 10
349.4464461046
 20
180.4452464311
 10
349.4722549158
 20
180.4894218547
 10
349.4977657037
 20
180.5336696888
 10
349.5229784685
 20
180.5779906316
 10
349.5479081111
 20
180.6223856146
 10
349.5730314689
 20
180.6677640742
 10
349.5978270011
 20
180.7132212306
 10
349.622309609
 20
180.7587582478
 10
349.6464494901
 20
180.8043760574
 10
349.6702615457
 20
180.8500755904
 10
349.6937308746
 20
180.8958577784
 10
349.7168425756
 20
180.9417233197
 10
349.7396115499
 20
180.9876733786
 10
349.7620228963
 20
181.0337086534
 10
349.7840617137
 20
181.0798303085
 10
349.8057280021
 20
181.1260388093
 10
349.8270217615
 20
181.1723348545
 10
349.8479578929
 20
181.2187172799
 10
349.8685065942
 20
181.2651856197
 10
349.8870287376
 20
181.3078564918
 10
349.9052379566
 20
181.3505976787
 10
349.9231342512
 20
181.3934096461
 10
349.9407325225
 20
181.4362909971
 10
349.9580178695
 20
181.4792417316
 10
349.9749902921
 20
181.522261384
 10
349.9931697088
 20
181.5692689596
 10
350.0109914976
 20
181.616356629
 10
350.0284407573
 20
181.6635239264
 10
350.0455323892
 20
181.7107699206
 10
350.0622663932
 20
181.7580941459
 10
350.0786427694
 20
181.8054952053
 10
350.0946615177
 20
181.8529726332
 10
350.109026237
 20
181.8965603924
 10
350.1231078344
 20
181.9402110158
 10
350.1368765073
 20
181.9839240378
 10
350.1503620582
 20
182.0276989928
 10
350.1635495859
 20
182.071535415
 10
350.1764390903
 20
182.1154323733
 10
350.1890305715
 20
182.1593894018
 10
350.2013389306
 20
182.203406035
 10
350.2133492666
 20
182.2474818071
 10
350.2250764804
 20
182.2916162526
 10
350.2365056711
 20
182.3358079745
 10
350.2476368385
 20
182.3800574383
 10
350.2578888374
 20
182.4218300497
 10
350.2678726154
 20
182.4636524869
 10
350.2776030736
 20
182.5055247499
 10
350.2870802122
 20
182.5474454416
 10
350.2962891298
 20
182.5894150278
 10
350.3066454368
 20
182.6380342571
 10
350.3166739183
 20
182.6867172821
 10
350.3263447719
 20
182.7354631713
 10
350.3356878
 20
182.7842709934
 10
350.3447030025
 20
182.8331398172
 10
350.3533754783
 20
182.882069177
 10
350.3617350297
 20
182.9310586071
 10
350.3690813022
 20
182.976017273
 10
350.3761742549
 20
183.0210248334
 10
350.3829840856
 20
183.0660808226
 10
350.3895107942
 20
183.1111847749
 10
350.3957692819
 20
183.1563362247
 10
350.4017446475
 20
183.2015337749
 10
350.4085693794
 20
183.2558322093
 10
350.4149917798
 20
183.3101958363
 10
350.4210267501
 20
183.3646241902
 10
350.4266891914
 20
183.419115874
 10
350.4319493013
 20
183.4736694908
 10
350.436732574
 20
183.5273094801
 10
350.4411582189
 20
183.5810072115
 10
350.4452113347
 20
183.6347626848
 10
350.4488919216
 20
183.6885745032
 10
350.4522744851
 20
183.7434214866
 10
350.4552696185
 20
183.7983252807
 10
350.4578922229
 20
183.8532844884
 10
350.4601422983
 20
183.9082981786
 10
350.4620049434
 20
183.9633654198
 10
350.4634801584
 20
184.0175008727
 10
350.4645977455
 20
184.0716856858
 10
350.4653577047
 20
184.1259193933
 10
350.4657749372
 20
184.1802005982
 10
350.4658196407
 20
184.2356385058
 10
350.4655067163
 20
184.2911239108
 10
350.4648212629
 20
184.3466563476
 10
350.4637781816
 20
184.4022348849
 10
350.4623625713
 20
184.45785766
 10
350.4606042343
 20
184.513524673
 10
350.4584733682
 20
184.5692345267
  0
LINE
  5
1E5
330
1F
100
AcDbEntity
  8
0
  6
Continuous
 62
     7
370
    25
100
AcDbLine
 10
250.5954396265
 20
160.3192370711
 30
0.0
 11
250.5954396265
 21
194.3192351936
 31
0.0
  0
LINE
  5
1E6
330
1F
100
AcDbEntity
  8
0
  6
Continuous
 62
     7
370
    25
100
AcDbLine
 10
300.0954393583
 20
179.9351631524
 30
0.0
 11
300.0954393583
 21
168.8137483178
 31
0.0
  0
LINE
  5
1E7
330
1F
100
AcDbEntity
  8
0
  6
Continuous
 62
     7
370
    25
100
AcDbLine
 10
300.0954393583
 20
185.8247202216
 30
0.0
 11
300.0954393583
 21
179.9351631524
 31
0.0
  0
SPLINE
  5
1E8
330
1F
100
AcDbEntity
  8
0
  6
Continuous
 62
     7
370
    25
100
AcDbSpline
210
0.0
220
0.0
230
1.0
 70
    11
 71
     3
 72
    27
 73
    23
 74
     0
 42
0.000000001
 43
0.00000001
 40
0.0
 40
0.0
 40
0.0
 40
0.0
 40
0.0306518430868811
 40
0.0613164979047743
 40
0.0921475829016957
 40
0.1539210155489373
 40
0.2167782953648632
 40
0.2805703840223721
 40
0.3444129936869699
 40
0.4073843737493512
 40
0.4691880626458171
 40
0.499843877121203
 40
0.5306598434358529
 40
0.561475358136663
 40
0.5921409486518203
 40
0.653966042475758
 40
0.7169131802485059
 40
0.7807371405392881
 40
0.8445421227907405
 40
0.9074134802036472
 40
0.9691745873341165
 40
1.0
 40
1.0
 40
1.0
 40
1.0
 10
224.8221872659691
 20
174.0185080887886
 30
0.0
 10
224.6136747338578
 20
173.987763975434
 30
0.0
 10
224.1965625164266
 20
173.9262628984271
 30
0.0
 10
223.5624339704587
 20
173.999092872001
 30
0.0
 10
222.7532427078616
 20
174.2545195225689
 30
0.0
 10
221.8568611920698
 20
174.8873678259391
 30
0.0
 10
221.1502405217718
 20
176.0048655568408
 30
0.0
 10
220.9018546844684
 20
177.3178529843901
 30
0.0
 10
221.1492965569726
 20
178.6317458079216
 30
0.0
 10
221.8563944749897
 20
179.7511415717491
 30
0.0
 10
222.7524572995832
 20
180.3826278438226
 30
0.0
 10
223.5620260011388
 20
180.6406894096936
 30
0.0
 10
224.1956028669183
 20
180.706795080891
 30
0.0
 10
224.8292387387522
 20
180.6406136096011
 30
0.0
 10
225.6389791277486
 20
180.3823772887057
 30
0.0
 10
226.5349443992236
 20
179.750657988461
 30
0.0
 10
227.2417322843799
 20
178.6311688202888
 30
0.0
 10
227.4889404199896
 20
177.3178552133022
 30
0.0
 10
227.2408106828885
 20
176.0034267641396
 30
0.0
 10
226.5327077127136
 20
174.8909885337176
 30
0.0
 10
225.6400758654536
 20
174.2428838616916
 30
0.0
 10
225.0264766980428
 20
174.0745519060595
 30
0.0
 10
224.8221872659691
 20
174.0185080887886
 30
0.0
  0
SPLINE
  5
1E9
330
1F
100
AcDbEntity
  8
0
  6
Continuous
 62
     7
370
    25
100
AcDbSpline
210
0.0
220
0.0
230
1.0
 70
    11
 71
     3
 72
    31
 73
    27
 74
     0
 42
0.000000001
 43
0.00000001
 40
0.0
 40
0.0
 40
0.0
 40
0.0
 40
0.0313585028033664
 40
0.0627038933849379
 40
0.0941109253119518
 40
0.1563563546357074
 40
0.2185908198328674
 40
0.2499770704604484
 40
0.2812751495847841
 40
0.3127359034109634
 40
0.3439773449680859
 40
0.4062848424597583
 40
0.4685939029017335
 40
0.4998377050351371
 40
0.5313502886096299
 40
0.5628634258905406
 40
0.5940972446749478
 40
0.6563854395891979
 40
0.7187174987684675
 40
0.7499766727713202
 40
0.7814382191109897
 40
0.8127326003309967
 40
0.8441096855931726
 40
0.9063299064954411
 40
0.9685873526462062
 40
1.0
 40
1.0
 40
1.0
 40
1.0
 10
223.7071985664137
 20
174.8673750879379
 30
0.0
 10
223.8696567675025
 20
174.8445242228712
 30
0.0
 10
224.1945052395248
 20
174.7988320475819
 30
0.0
 10
224.6872554121306
 20
174.8527381474755
 30
0.0
 10
225.3141295624313
 20
175.0411427545466
 30
0.0
 10
226.0094434736055
 20
175.5053551618731
 30
0.0
 10
226.4727305096741
 20
176.2001154667581
 30
0.0
 10
226.6628669864316
 20
176.8269470740178
 30
0.0
 10
226.7116565809371
 20
177.3187446434042
 30
0.0
 10
226.6632061895636
 20
177.809867089505
 30
0.0
 10
226.4732599651543
 20
178.4371679829336
 30
0.0
 10
226.0104175724844
 20
179.1325323835122
 30
0.0
 10
225.3154710217513
 20
179.5960263573887
 30
0.0
 10
224.6880633865269
 20
179.7866314918177
 30
0.0
 10
224.1955657405994
 20
179.8355956171569
 30
0.0
 10
223.703115423683
 20
179.7866856434062
 30
0.0
 10
223.0758359251263
 20
179.5962118020263
 30
0.0
 10
222.3808287824399
 20
179.1329033593173
 30
0.0
 10
221.9177569687611
 20
178.4375256487402
 30
0.0
 10
221.7276922387168
 20
177.8100279946941
 30
0.0
 10
221.6792177678623
 20
177.3188058207211
 30
0.0
 10
221.7280035317157
 20
176.8271576454574
 30
0.0
 10
221.9179506393754
 20
176.2000165468151
 30
0.0
 10
222.3818665029721
 20
175.5085259666635
 30
0.0
 10
223.074456055591
 20
175.0328662352011
 30
0.0
 10
223.5482948102133
 20
174.9089356982466
 30
0.0
 10
223.7071985664137
 20
174.8673750879379
 30
0.0
  0
LINE
  5
1EA
330
1F
100
AcDbEntity
  8
0
  6
Continuous
 62
     7
370
    25
100
AcDbLine
 10
217.195438302
 20
161.5206729947
 30
0.0
 11
217.195438302
 21
159.2192333518
 31
0.0
  0
LINE
  5
1EB
330
1F
100
AcDbEntity
  8
0
  6
Continuous
 62
     7
370
    25
100
AcDbLine
 10
217.195438302
 20
161.5206729947
 30
0.0
 11
217.195438302
 21
161.770669776
 31
0.0
  0
LINE
  5
1EC
330
1F
100
AcDbEntity
  8
0
  6
Continuous
 62
     7
370
    25
100
AcDbLine
 10
217.195438302
 20
192.8677987633
 30
0.0
 11
217.195438302
 21
161.770669776
 31
0.0
  0
LINE
  5
1ED
330
1F
100
AcDbEntity
  8
0
  6
Continuous
 62
     7
370
    25
100
AcDbLine
 10
217.195438302
 20
192.8677987633
 30
0.0
 11
217.195438302
 21
193.11779927
 31
0.0
  0
LINE
  5
1EE
330
1F
100
AcDbEntity
  8
0
  6
Continuous
 62
     7
370
    25
100
AcDbLine
 10
217.195438302
 20
195.4192351876
 30
0.0
 11
217.195438302
 21
193.11779927
 31
0.0
  0
LINE
  5
1EF
330
1F
100
AcDbEntity
  8
0
  6
Continuous
 62
     7
370
    25
100
AcDbLine
 10
250.0954386132
 20
159.8192360578
 30
0.0
 11
250.0954386132
 21
194.8192324815
 31
0.0
  0
LINE
  5
1F0
330
1F
100
AcDbEntity
  8
0
  6
Continuous
 62
     7
370
    25
100
AcDbLine
 10
128.1954352098
 20
172.4516474968
 30
0.0
 11
128.1954352098
 21
186.8428569613
 31
0.0
  0
LINE
  5
1F1
330
1F
100
AcDbEntity
  8
0
  6
Continuous
 62
     7
370
    25
100
AcDbLine
 10
128.1954352098
 20
167.7956115781
 30
0.0
 11
128.1954352098
 21
172.4516474968
 31
0.0
  0
LINE
  5
1F2
330
1F
100
AcDbEntity
  8
0
  6
Continuous
 62
     7
370
    25
100
AcDbLine
 10
180.195440008
 20
156.8194385944
 30
0.0
 11
180.195440008
 21
197.8192348359
 31
0.0
  0
LINE
  5
1F3
330
1F
100
AcDbEntity
  8
0
  6
Continuous
 62
     7
370
    25
100
AcDbLine
 10
182.6954413491
 20
197.819029945
 30
0.0
 11
182.6954413491
 21
156.8192374287
 31
0.0
  0
LINE
  5
1F4
330
1F
100
AcDbEntity
  8
0
  6
Continuous
 62
     7
370
    25
100
AcDbLine
 10
183.1954386371
 20
176.459452461
 30
0.0
 11
183.1954386371
 21
176.0037861858
 31
0.0
  0
ARC
  5
1F5
330
1F
100
AcDbEntity
  8
0
  6
Continuous
 62
     7
370
    25
100
AcDbCircle
 10
183.0710332137
 20
174.1723647014
 30
0.0
 40
1.835641948418551
100
AcDbArc
 50
86.113962469
 51
101.8067069453
  0
ARC
  5
1F6
330
1F
100
AcDbEntity
  8
0
  6
Continuous
 62
     7
370
    25
100
AcDbCircle
 10
183.1590760483
 20
176.9236707722
 30
0.0
 40
0.4656402885039328
100
AcDbArc
 50
185.3197271222
 51
274.4788784489
  0
LINE
  5
1F7
330
1F
100
AcDbEntity
  8
0
  6
Continuous
 62
     7
370
    25
100
AcDbLine
 10
183.1954386371
 20
176.0037861858
 30
0.0
 11
183.1954386371
 21
175.4920318816
 31
0.0
  0
ARC
  5
1F8
330
1F
100
AcDbEntity
  8
0
  6
Continuous
 62
     7
370
    25
100
AcDbCircle
 10
183.0715835698
 20
174.1562519401
 30
0.0
 40
1.341509645796093
100
AcDbArc
 50
84.7026150624
 51
106.2833192543
  0
LINE
  5
1F9
330
1F
100
AcDbEntity
  8
0
  6
Continuous
 62
     7
370
    25
100
AcDbLine
 10
183.1954386371
 20
175.4920318816
 30
0.0
 11
183.1954386371
 21
175.0803760113
 31
0.0
  0
ARC
  5
1FA
330
1F
100
AcDbEntity
  8
0
  6
Continuous
 62
     7
370
    25
100
AcDbCircle
 10
183.1761230811
 20
174.5996233335
 30
0.0
 40
0.4811405490496864
100
AcDbArc
 50
87.6992225641
 51
177.4976046773
  0
LINE
  5
1FB
330
1F
100
AcDbEntity
  8
0
  6
Continuous
 62
     7
370
    25
100
AcDbLine
 10
190.4527977394
 20
175.4920318816
 30
0.0
 11
190.4527977394
 21
176.0037861858
 31
0.0
  0
LINE
  5
1FC
330
1F
100
AcDbEntity
  8
0
  6
Continuous
 62
     7
370
    25
100
AcDbLine
 10
190.4527977394
 20
176.5366889048
 30
0.0
 11
190.4527977394
 21
176.0037861858
 31
0.0
  0
SPLINE
  5
1FD
330
1F
100
AcDbEntity
  8
0
  6
Continuous
 62
     7
370
    25
100
AcDbSpline
210
0.0
220
0.0
230
1.0
 70
     8
 71
     3
 72
     9
 73
     5
 74
     0
 42
0.000000001
 43
0.00000001
 40
0.0
 40
0.0
 40
0.0
 40
0.0
 40
0.672328457430868
 40
1.0
 40
1.0
 40
1.0
 40
1.0
 10
191.2954379158385
 20
175.0565378787132
 30
0.0
 10
191.1066282194301
 20
175.0508426994143
 30
0.0
 10
190.8257986720243
 20
175.0423718705569
 30
0.0
 10
190.5448549893123
 20
175.0419640603986
 30
0.0
 10
190.4527977394231
 20
175.0418304326149
 30
0.0
  0
SPLINE
  5
1FE
330
1F
100
AcDbEntity
  8
0
  6
Continuous
 62
     7
370
    25
100
AcDbSpline
210
0.0
220
0.0
230
1.0
 70
     8
 71
     3
 72
    11
 73
     7
 74
     0
 42
0.000000001
 43
0.00000001
 40
0.0
 40
0.0
 40
0.0
 40
0.0
 40
0.1361480206196283
 40
0.3689201688067299
 40
0.6724284885623023
 40
1.0
 40
1.0
 40
1.0
 40
1.0
 10
182.762317760504
 20
177.0367383468101
 30
0.0
 10
182.8713927462165
 20
177.0561532677429
 30
0.0
 10
183.1669531367275
 20
177.1087618615022
 30
0.0
 10
183.7142055016818
 20
177.1354034884486
 30
0.0
 10
184.4157479919253
 20
177.1635484387642
 30
0.0
 10
184.9290182766619
 20
177.1660245229186
 30
0.0
 10
185.1954389648803
 20
177.1673097717712
 30
0.0
  0
SPLINE
  5
1FF
330
1F
100
AcDbEntity
  8
0
  6
Continuous
 62
     7
370
    25
100
AcDbSpline
210
0.0
220
0.0
230
1.0
 70
     8
 71
     3
 72
    11
 73
     7
 74
     0
 42
0.000000001
 43
0.00000001
 40
0.0
 40
0.0
 40
0.0
 40
0.0
 40
0.2703034155356436
 40
0.5307949415836227
 40
0.7756100858654434
 40
1.0
 40
1.0
 40
1.0
 40
1.0
 10
185.1954389648803
 20
190.1492048381033
 30
0.0
 10
184.9162501583117
 20
190.1708551835735
 30
0.0
 10
184.3680069702644
 20
190.2133699769452
 30
0.0
 10
183.6327179886853
 20
190.5529874960506
 30
0.0
 10
183.0438507470481
 20
191.0526780417898
 30
0.0
 10
182.8533985283538
 20
191.5022194960011
 30
0.0
 10
182.762317760504
 20
191.717205601758
 30
0.0
  0
LINE
  5
200
330
1F
100
AcDbEntity
  8
0
  6
Continuous
 62
     7
370
    25
100
AcDbLine
 10
185.1954389649
 20
190.1492048381
 30
0.0
 11
185.1954389649
 21
177.1673097718
 31
0.0
  0
SPLINE
  5
201
330
1F
100
AcDbEntity
  8
0
  6
Continuous
 62
     7
370
    25
100
AcDbSpline
210
0.0
220
0.0
230
1.0
 70
     8
 71
     3
 72
    10
 73
     6
 74
     0
 42
0.000000001
 43
0.00000001
 40
0.0
 40
0.0
 40
0.0
 40
0.0
 40
0.4778117568703421
 40
0.5888495215814273
 40
1.0
 40
1.0
 40
1.0
 40
1.0
 10
183.2489412563212
 20
176.5366889047573
 30
0.0
 10
183.2325379775525
 20
176.5306073560512
 30
0.0
 10
183.2123227720526
 20
176.523112527817
 30
0.0
 10
183.1971198609981
 20
176.4917107923319
 30
0.0
 10
183.1961792428098
 20
176.4736627664909
 30
0.0
 10
183.1954386370547
 20
176.4594524609992
 30
0.0
  0
ARC
  5
202
330
1F
100
AcDbEntity
  8
0
  6
Continuous
 62
     7
370
    25
100
AcDbCircle
 10
183.2661528834
 20
177.0402421468
 30
0.0
 40
0.5038473058773063
100
AcDbArc
 50
180.398443269
 51
268.0423722164
  0
LINE
  5
203
330
1F
100
AcDbEntity
  8
0
  6
Continuous
 62
     7
370
    25
100
AcDbLine
 10
183.1954386371
 20
175.4920318816
 30
0.0
 11
190.4527977394
 21
175.4920318816
 31
0.0
  0
LINE
  5
204
330
1F
100
AcDbEntity
  8
0
  6
Continuous
 62
     7
370
    25
100
AcDbLine
 10
190.4527977394
 20
176.0037861858
 30
0.0
 11
183.1954386371
 21
176.0037861858
 31
0.0
  0
LINE
  5
205
330
1F
100
AcDbEntity
  8
0
  6
Continuous
 62
     7
370
    25
100
AcDbLine
 10
183.2489412563
 20
176.5366889048
 30
0.0
 11
190.4527977394
 21
176.5366889048
 31
0.0
  0
SPLINE
  5
206
330
1F
100
AcDbEntity
  8
0
  6
Continuous
 62
     7
370
    25
100
AcDbSpline
210
0.0
220
0.0
230
1.0
 70
     8
 71
     3
 72
     9
 73
     5
 74
     0
 42
0.000000001
 43
0.00000001
 40
0.0
 40
0.0
 40
0.0
 40
0.0
 40
0.2725750307660654
 40
1.0
 40
1.0
 40
1.0
 40
1.0
 10
183.2331124978431
 20
175.0417782785507
 30
0.0
 10
183.2344914434275
 20
175.0412082663931
 30
0.0
 10
183.2395504012512
 20
175.0391170544579
 30
0.0
 10
183.2449867329225
 20
175.0406878191541
 30
0.0
 10
183.2489412563212
 20
175.0418304326149
 30
0.0
  0
SPLINE
  5
207
330
1F
100
AcDbEntity
  8
0
  6
Continuous
 62
     7
370
    25
100
AcDbSpline
210
0.0
220
0.0
230
1.0
 70
     8
 71
     3
 72
    11
 73
     7
 74
     0
 42
0.000000001
 43
0.00000001
 40
0.0
 40
0.0
 40
0.0
 40
0.0
 40
0.2408347026537335
 40
0.489908757449197
 40
0.7472162790901851
 40
1.0
 40
1.0
 40
1.0
 40
1.0
 10
182.762317760504
 20
161.222806232995
 30
0.0
 10
182.8552630435511
 20
161.4650817436007
 30
0.0
 10
183.0443334209786
 20
161.9579214093686
 30
0.0
 10
183.6421334796154
 20
162.5162006688292
 30
0.0
 10
184.3790994904283
 20
162.885952985868
 30
0.0
 10
184.9249394207067
 20
162.931756582829
 30
0.0
 10
185.1954389648803
 20
162.9544552741708
 30
0.0
  0
SPLINE
  5
208
330
1F
100
AcDbEntity
  8
0
  6
Continuous
 62
     7
370
    25
100
AcDbSpline
210
0.0
220
0.0
230
1.0
 70
     8
 71
     3
 72
    11
 73
     7
 74
     0
 42
0.000000001
 43
0.00000001
 40
0.0
 40
0.0
 40
0.0
 40
0.0
 40
0.3376865212583606
 40
0.637699252488031
 40
0.8672654898597637
 40
1.0
 40
1.0
 40
1.0
 40
1.0
 10
185.1954389648803
 20
174.7491530003162
 30
0.0
 10
184.9199945370879
 20
174.7470540620269
 30
0.0
 10
184.3998354704761
 20
174.7430903522136
 30
0.0
 10
183.694594475142
 20
174.7007747618742
 30
0.0
 10
183.1540029743574
 20
174.6604038359939
 30
0.0
 10
182.867340875901
 20
174.5874622695121
 30
0.0
 10
182.762317760504
 20
174.5607389928909
 30
0.0
  0
LINE
  5
209
330
1F
100
AcDbEntity
  8
0
  6
Continuous
 62
     7
370
    25
100
AcDbLine
 10
185.1954389649
 20
174.7491530003
 30
0.0
 11
185.1954389649
 21
162.9544552742
 31
0.0
  0
SPLINE
  5
20A
330
1F
100
AcDbEntity
  8
0
  6
Continuous
 62
     7
370
    25
100
AcDbSpline
210
0.0
220
0.0
230
1.0
 70
     8
 71
     3
 72
    11
 73
     7
 74
     0
 42
0.000000001
 43
0.00000001
 40
0.0
 40
0.0
 40
0.0
 40
0.0
 40
0.3271776106185905
 40
0.6304165671561239
 40
0.8632191126010514
 40
1.0
 40
1.0
 40
1.0
 40
1.0
 10
185.1954389648803
 20
176.6644216585109
 30
0.0
 10
184.982277265432
 20
176.6631161381632
 30
0.0
 10
184.5715503010738
 20
176.660600618674
 30
0.0
 10
184.0103696040823
 20
176.6328269193722
 30
0.0
 10
183.571702769305
 20
176.6061162322749
 30
0.0
 10
183.3361267162742
 20
176.5554428553971
 30
0.0
 10
183.2489412563212
 20
176.5366889047573
 30
0.0
  0
LINE
  5
20B
330
1F
100
AcDbEntity
  8
0
  6
Continuous
 62
     7
370
    25
100
AcDbLine
 10
191.2954379158
 20
176.6644216585
 30
0.0
 11
185.1954389649
 21
176.6644216585
 31
0.0
  0
LINE
  5
20C
330
1F
100
AcDbEntity
  8
0
  6
Continuous
 62
     7
370
    25
100
AcDbLine
 10
185.1954389649
 20
176.6644216585
 30
0.0
 11
185.1954389649
 21
177.1673097718
 31
0.0
  0
SPLINE
  5
20D
330
1F
100
AcDbEntity
  8
0
  6
Continuous
 62
     7
370
    25
100
AcDbSpline
210
0.0
220
0.0
230
1.0
 70
     8
 71
     3
 72
    10
 73
     6
 74
     0
 42
0.000000001
 43
0.00000001
 40
0.0
 40
0.0
 40
0.0
 40
0.0
 40
0.3785888112607871
 40
0.8931531107056987
 40
1.0
 40
1.0
 40
1.0
 40
1.0
 10
183.1954386370547
 20
192.3172455607118
 30
0.0
 10
183.1965801116497
 20
192.2877476856199
 30
0.0
 10
183.1992730374704
 20
192.2181573593504
 30
0.0
 10
183.2218288295959
 20
192.1417701233461
 30
0.0
 10
183.2449634378195
 20
192.0992413278842
 30
0.0
 10
183.2489412563212
 20
192.09192882759
 30
0.0
  0
ARC
  5
20E
330
1F
100
AcDbEntity
  8
0
  6
Continuous
 62
     7
370
    25
100
AcDbCircle
 10
183.2813532975
 20
191.5465064785
 30
0.0
 40
0.5463845526172761
100
AcDbArc
 50
93.4008356356
 51
161.7951265539
  0
ARC
  5
20F
330
1F
100
AcDbEntity
  8
0
  6
Continuous
 62
     7
370
    25
100
AcDbCircle
 10
183.0722279361
 20
191.2245203429
 30
0.0
 40
1.09964961627337
100
AcDbArc
 50
83.566761572
 51
110.0379455514
  0
LINE
  5
210
330
1F
100
AcDbEntity
  8
0
  6
Continuous
 62
     7
370
    25
100
AcDbLine
 10
183.1954386371
 20
192.7838493465
 30
0.0
 11
183.1954386371
 21
192.3172455607
 31
0.0
  0
ARC
  5
211
330
1F
100
AcDbEntity
  8
0
  6
Continuous
 62
     7
370
    25
100
AcDbCircle
 10
183.1532484071
 20
193.2426452313
 30
0.0
 40
0.4607316783719991
100
AcDbArc
 50
186.4591941738
 51
275.2540631262
  0
SPLINE
  5
212
330
1F
100
AcDbEntity
  8
0
  6
Continuous
 62
     7
370
    25
100
AcDbSpline
210
0.0
220
0.0
230
1.0
 70
     8
 71
     3
 72
    11
 73
     7
 74
     0
 42
0.000000001
 43
0.00000001
 40
0.0
 40
0.0
 40
0.0
 40
0.0
 40
0.2254713594092818
 40
0.470643510739824
 40
0.7306723682201978
 40
1.0
 40
1.0
 40
1.0
 40
1.0
 10
183.2489412563212
 20
192.09192882759
 30
0.0
 10
183.3217081772947
 20
191.9181595416876
 30
0.0
 10
183.473600103801
 20
191.5554376998087
 30
0.0
 10
183.9443300644796
 20
191.1505539812495
 30
0.0
 10
184.5329017159426
 20
190.8750555275984
 30
0.0
 10
184.9720219924858
 20
190.8405205024936
 30
0.0
 10
185.1954389648803
 20
190.8229496656122
 30
0.0
  0
LINE
  5
213
330
1F
100
AcDbEntity
  8
0
  6
Continuous
 62
     7
370
    25
100
AcDbLine
 10
185.1954389649
 20
190.8229496656
 30
0.0
 11
185.1954389649
 21
190.1492048381
 31
0.0
  0
LINE
  5
214
330
1F
100
AcDbEntity
  8
0
  6
Continuous
 62
     7
370
    25
100
AcDbLine
 10
183.1954386371
 20
193.0765081523
 30
0.0
 11
183.1954386371
 21
192.7838493465
 31
0.0
  0
ARC
  5
215
330
1F
100
AcDbEntity
  8
0
  6
Continuous
 62
     7
370
    25
100
AcDbCircle
 10
183.1564096551
 20
193.5382248463
 30
0.0
 40
0.4633633206211796
100
AcDbArc
 50
185.8279809688
 51
274.8317346104
  0
LINE
  5
216
330
1F
100
AcDbEntity
  8
0
  6
Continuous
 62
     7
370
    25
100
AcDbLine
 10
190.4527977394
 20
192.0919288276
 30
0.0
 11
183.2489412563
 21
192.0919288276
 31
0.0
  0
LINE
  5
217
330
1F
100
AcDbEntity
  8
0
  6
Continuous
 62
     7
370
    25
100
AcDbLine
 10
190.4527977394
 20
192.7838493465
 30
0.0
 11
190.4527977394
 21
192.0919288276
 31
0.0
  0
LINE
  5
218
330
1F
100
AcDbEntity
  8
0
  6
Continuous
 62
     7
370
    25
100
AcDbLine
 10
183.1954386371
 20
192.7838493465
 30
0.0
 11
190.4527977394
 21
192.7838493465
 31
0.0
  0
LINE
  5
219
330
1F
100
AcDbEntity
  8
0
  6
Continuous
 62
     7
370
    25
100
AcDbLine
 10
190.4527977394
 20
192.7838493465
 30
0.0
 11
190.4527977394
 21
193.0765081523
 31
0.0
  0
LINE
  5
21A
330
1F
100
AcDbEntity
  8
0
  6
Continuous
 62
     7
370
    25
100
AcDbLine
 10
190.4527977394
 20
193.0765081523
 30
0.0
 11
183.1954386371
 21
193.0765081523
 31
0.0
  0
SPLINE
  5
21B
330
1F
100
AcDbEntity
  8
0
  6
Continuous
 62
     7
370
    25
100
AcDbSpline
210
0.0
220
0.0
230
1.0
 70
     8
 71
     3
 72
    10
 73
     6
 74
     0
 42
0.000000001
 43
0.00000001
 40
0.0
 40
0.0
 40
0.0
 40
0.0
 40
0.5117824642355582
 40
0.629965426781668
 40
1.0
 40
1.0
 40
1.0
 40
1.0
 10
183.2489412563212
 20
160.9091218887033
 30
0.0
 10
183.2325585310038
 20
160.8705378709261
 30
0.0
 10
183.2123926377432
 20
160.8230438692269
 30
0.0
 10
183.1980694989057
 20
160.7427240487757
 30
0.0
 10
183.1965729306172
 20
160.7029374594945
 30
0.0
 10
183.1954386370547
 20
160.6727820215883
 30
0.0
  0
ARC
  5
21C
330
1F
100
AcDbEntity
  8
0
  6
Continuous
 62
     7
370
    25
100
AcDbCircle
 10
183.0707100129
 20
157.9389068472
 30
0.0
 40
2.736718966014975
100
AcDbArc
 50
87.3877843469
 51
97.8814334056
  0
ARC
  5
21D
330
1F
100
AcDbEntity
  8
0
  6
Continuous
 62
     7
370
    25
100
AcDbCircle
 10
183.2789273773
 20
161.4899353772
 30
0.0
 40
0.5815870320751526
100
AcDbArc
 50
207.342636885
 51
267.0445690811
  0
LINE
  5
21E
330
1F
100
AcDbEntity
  8
0
  6
Continuous
 62
     7
370
    25
100
AcDbLine
 10
183.1954386371
 20
160.6727820216
 30
0.0
 11
183.1954386371
 21
160.2465119539
 31
0.0
  0
ARC
  5
21F
330
1F
100
AcDbEntity
  8
0
  6
Continuous
 62
     7
370
    25
100
AcDbCircle
 10
183.1713619516
 20
159.7704469294
 30
0.0
 40
0.4766734672159016
100
AcDbArc
 50
87.104769192
 51
176.7793554762
  0
SPLINE
  5
220
330
1F
100
AcDbEntity
  8
0
  6
Continuous
 62
     7
370
    25
100
AcDbSpline
210
0.0
220
0.0
230
1.0
 70
     8
 71
     3
 72
    11
 73
     7
 74
     0
 42
0.000000001
 43
0.00000001
 40
0.0
 40
0.0
 40
0.0
 40
0.0
 40
0.2520682944771083
 40
0.5090256617857479
 40
0.7583665963827917
 40
1.0
 40
1.0
 40
1.0
 40
1.0
 10
185.1954389648803
 20
162.3058300791444
 30
0.0
 10
184.9789885252477
 20
162.2874818408403
 30
0.0
 10
184.5418894108733
 20
162.2504294849906
 30
0.0
 10
183.9520833536621
 20
161.9516497727051
 30
0.0
 10
183.4741810002254
 20
161.50105918127
 30
0.0
 10
183.3232312792649
 20
161.1043584587855
 30
0.0
 10
183.2489412563212
 20
160.9091218887033
 30
0.0
  0
LINE
  5
221
330
1F
100
AcDbEntity
  8
0
  6
Continuous
 62
     7
370
    25
100
AcDbLine
 10
185.1954389649
 20
162.3058300791
 30
0.0
 11
185.1954389649
 21
162.9544552742
 31
0.0
  0
LINE
  5
222
330
1F
100
AcDbEntity
  8
0
  6
Continuous
 62
     7
370
    25
100
AcDbLine
 10
190.4527977394
 20
160.9091218887
 30
0.0
 11
190.4527977394
 21
160.2465119539
 31
0.0
  0
LINE
  5
223
330
1F
100
AcDbEntity
  8
0
  6
Continuous
 62
     7
370
    25
100
AcDbLine
 10
183.2489412563
 20
160.9091218887
 30
0.0
 11
190.4527977394
 21
160.9091218887
 31
0.0
  0
LINE
  5
224
330
1F
100
AcDbEntity
  8
0
  6
Continuous
 62
     7
370
    25
100
AcDbLine
 10
190.4527977394
 20
160.2465119539
 30
0.0
 11
183.1954386371
 21
160.2465119539
 31
0.0
  0
LINE
  5
225
330
1F
100
AcDbEntity
  8
0
  6
Continuous
 62
     7
370
    25
100
AcDbLine
 10
183.1954386371
 20
160.2465119539
 30
0.0
 11
183.1954386371
 21
160.0274127303
 31
0.0
  0
ARC
  5
226
330
1F
100
AcDbEntity
  8
0
  6
Continuous
 62
     7
370
    25
100
AcDbCircle
 10
183.1739680132
 20
159.5487866934
 30
0.0
 40
0.4791073688442976
100
AcDbArc
 50
87.4314979547
 51
177.1787423976
  0
LINE
  5
227
330
1F
100
AcDbEntity
  8
0
  6
Continuous
 62
     7
370
    25
100
AcDbLine
 10
190.4527977394
 20
160.0274127303
 30
0.0
 11
190.4527977394
 21
160.2465119539
 31
0.0
  0
LINE
  5
228
330
1F
100
AcDbEntity
  8
0
  6
Continuous
 62
     7
370
    25
100
AcDbLine
 10
183.1954386371
 20
160.0274127303
 30
0.0
 11
190.4527977394
 21
160.0274127303
 31
0.0
  0
SPLINE
  5
229
330
1F
100
AcDbEntity
  8
0
  6
Continuous
 62
     7
370
    25
100
AcDbSpline
210
0.0
220
0.0
230
1.0
 70
     8
 71
     3
 72
    19
 73
    15
 74
     0
 42
0.000000001
 43
0.00000001
 40
0.0
 40
0.0
 40
0.0
 40
0.0
 40
0.1042895062750492
 40
0.20025229439457
 40
0.2832138631259213
 40
0.3916848667643325
 40
0.4764826181201638
 40
0.4947603723171736
 40
0.5842928134852827
 40
0.6198826261465844
 40
0.7252607812938785
 40
0.8206317355397083
 40
0.9293402184208351
 40
1.0
 40
1.0
 40
1.0
 40
1.0
 10
208.7954389216669
 20
179.4150269450756
 30
0.0
 10
209.0436615757074
 20
179.3978539774505
 30
0.0
 10
209.5202882063987
 20
179.3648791721099
 30
0.0
 10
210.1536553980281
 20
179.1070985546514
 30
0.0
 10
210.7033852800219
 20
178.6913178220852
 30
0.0
 10
211.0700420998029
 20
178.1248433261198
 30
0.0
 10
211.1824065832786
 20
177.6273536862505
 30
0.0
 10
211.2047386592558
 20
177.1708865643501
 30
0.0
 10
211.158161821098
 20
176.8264809327811
 30
0.0
 10
210.9685935962968
 20
176.3128213226177
 30
0.0
 10
210.6372794208783
 20
175.8396395350136
 30
0.0
 10
210.0215988463549
 20
175.4209087251085
 30
0.0
 10
209.3892035830122
 20
175.218135906904
 30
0.0
 10
208.9632412220275
 20
175.197310109681
 30
0.0
 10
208.7954389216669
 20
175.1891060592743
 30
0.0
  0
LINE
  5
22A
330
1F
100
AcDbEntity
  8
0
  6
Continuous
 62
     7
370
    25
100
AcDbLine
 10
208.7954389217
 20
175.9287364874
 30
0.0
 11
208.7954389217
 21
175.1891060593
 31
0.0
  0
SPLINE
  5
22B
330
1F
100
AcDbEntity
  8
0
  6
Continuous
 62
     7
370
    25
100
AcDbSpline
210
0.0
220
0.0
230
1.0
 70
     8
 71
     3
 72
    18
 73
    14
 74
     0
 42
0.000000001
 43
0.00000001
 40
0.0
 40
0.0
 40
0.0
 40
0.0
 40
0.0693129782241569
 40
0.1761300650990158
 40
0.2705686070638255
 40
0.3768007341193214
 40
0.4741351401797317
 40
0.5054699059140277
 40
0.611354268696976
 40
0.7209561660093544
 40
0.8032727726061589
 40
0.8976836226451146
 40
1.0
 40
1.0
 40
1.0
 40
1.0
 10
208.7954389216669
 20
175.9287364874171
 30
0.0
 10
208.9003268996659
 20
175.9339376740645
 30
0.0
 10
209.1668560096016
 20
175.9471543236193
 30
0.0
 10
209.563348826602
 20
176.0763727715952
 30
0.0
 10
209.9498751750095
 20
176.3476899401107
 30
0.0
 10
210.2068276383458
 20
176.7325216823572
 30
0.0
 10
210.2897900318239
 20
177.0847837020917
 30
0.0
 10
210.3011529105386
 20
177.4394166950194
 30
0.0
 10
210.2335128467959
 20
177.8147318753106
 30
0.0
 10
209.9909379657823
 20
178.2092814039292
 30
0.0
 10
209.645815873246
 20
178.4789867753042
 30
0.0
 10
209.2490333594683
 20
178.6437772833256
 30
0.0
 10
208.9506341471363
 20
178.6647008314845
 30
0.0
 10
208.7954389216669
 20
178.6755830142783
 30
0.0
  0
LINE
  5
22C
330
1F
100
AcDbEntity
  8
0
  6
Continuous
 62
     7
370
    25
100
AcDbLine
 10
208.7954389217
 20
179.4150269451
 30
0.0
 11
208.7954389217
 21
178.6755830143
 31
0.0
  0
LINE
  5
22D
330
1F
100
AcDbEntity
  8
0
  6
Continuous
 62
     7
370
    25
100
AcDbLine
 10
191.2954379158
 20
156.8192374287
 30
0.0
 11
191.2954379158
 21
197.8192273853
 31
0.0
  0
LINE
  5
22E
330
1F
100
AcDbEntity
  8
0
  6
Continuous
 62
     7
370
    25
100
AcDbLine
 10
205.5982141109
 20
179.4150269451
 30
0.0
 11
208.7954389217
 21
179.4150269451
 31
0.0
  0
SPLINE
  5
22F
330
1F
100
AcDbEntity
  8
0
  6
Continuous
 62
     7
370
    25
100
AcDbSpline
210
0.0
220
0.0
230
1.0
 70
     8
 71
     3
 72
    17
 73
    13
 74
     0
 42
0.000000001
 43
0.00000001
 40
0.0
 40
0.0
 40
0.0
 40
0.0
 40
0.1172221017495132
 40
0.2364723092742107
 40
0.3533828068232207
 40
0.4606315055157992
 40
0.5588895640023163
 40
0.6532026243854355
 40
0.7490455186651738
 40
0.8506492889452251
 40
0.960431545860946
 40
0.9999999999999999
 40
0.9999999999999999
 40
0.9999999999999999
 40
0.9999999999999999
 10
205.5982141109474
 20
175.1891060592743
 30
0.0
 10
205.3345749138023
 20
175.2160390834862
 30
0.0
 10
204.802735193872
 20
175.270371110775
 30
0.0
 10
204.1062197982639
 20
175.6975236580085
 30
0.0
 10
203.619561602177
 20
176.3113605004276
 30
0.0
 10
203.3991826369483
 20
177.0150075336898
 30
0.0
 10
203.4220640290537
 20
177.6970214273795
 30
0.0
 10
203.6461538433754
 20
178.3130087692077
 30
0.0
 10
204.050472902802
 20
178.8390371784342
 30
0.0
 10
204.6249577357922
 20
179.234654273007
 30
0.0
 10
205.1754858771792
 20
179.3997321905894
 30
0.0
 10
205.5096751704224
 20
179.4118235125873
 30
0.0
 10
205.5982141109474
 20
179.4150269450756
 30
0.0
  0
LINE
  5
230
330
1F
100
AcDbEntity
  8
0
  6
Continuous
 62
     7
370
    25
100
AcDbLine
 10
208.7954389217
 20
175.1891060593
 30
0.0
 11
205.5982141109
 21
175.1891060593
 31
0.0
  0
LINE
  5
231
330
1F
100
AcDbEntity
  8
0
  6
Continuous
 62
     7
370
    25
100
AcDbLine
 10
205.5982141109
 20
179.4150269451
 30
0.0
 11
205.5982141109
 21
178.6755830143
 31
0.0
  0
SPLINE
  5
232
330
1F
100
AcDbEntity
  8
0
  6
Continuous
 62
     7
370
    25
100
AcDbSpline
210
0.0
220
0.0
230
1.0
 70
     8
 71
     3
 72
    17
 73
    13
 74
     0
 42
0.000000001
 43
0.00000001
 40
0.0
 40
0.0
 40
0.0
 40
0.0
 40
0.0409743514883819
 40
0.1540706997244533
 40
0.2569285703106963
 40
0.3517982825122027
 40
0.4433466716591016
 40
0.5378601777290462
 40
0.6417433169296497
 40
0.7575576842805489
 40
0.8788403727757986
 40
1.0
 40
1.0
 40
1.0
 40
1.0
 10
205.5982141109474
 20
178.6755830142783
 30
0.0
 10
205.5362545151655
 20
178.6734993704191
 30
0.0
 10
205.3032756410649
 20
178.6656645065176
 30
0.0
 10
204.9211019772558
 20
178.5600183259594
 30
0.0
 10
204.5187344833622
 20
178.3046447649538
 30
0.0
 10
204.2338943644379
 20
177.9630459176339
 30
0.0
 10
204.0751092838033
 20
177.560916988595
 30
0.0
 10
204.0587899195274
 20
177.1138632097745
 30
0.0
 10
204.2158708159289
 20
176.6529213587985
 30
0.0
 10
204.5597324547804
 20
176.2544338468743
 30
0.0
 10
205.0458827148374
 20
175.9806038551192
 30
0.0
 10
205.4141659578624
 20
175.9460197584718
 30
0.0
 10
205.5982141109474
 20
175.9287364874171
 30
0.0
  0
LINE
  5
233
330
1F
100
AcDbEntity
  8
0
  6
Continuous
 62
     7
370
    25
100
AcDbLine
 10
205.5982141109
 20
175.9287364874
 30
0.0
 11
205.5982141109
 21
175.1891060593
 31
0.0
  0
LINE
  5
234
330
1F
100
AcDbEntity
  8
0
  6
Continuous
 62
     7
370
    25
100
AcDbLine
 10
205.5982141109
 20
178.6755830143
 30
0.0
 11
205.5982141109
 21
175.9287364874
 31
0.0
  0
LINE
  5
235
330
1F
100
AcDbEntity
  8
0
  6
Continuous
 62
     7
370
    25
100
AcDbLine
 10
208.7954389217
 20
178.6755830143
 30
0.0
 11
205.5982141109
 21
178.6755830143
 31
0.0
  0
LINE
  5
236
330
1F
100
AcDbEntity
  8
0
  6
Continuous
 62
     7
370
    25
100
AcDbLine
 10
205.5982141109
 20
175.9287364874
 30
0.0
 11
208.7954389217
 21
175.9287364874
 31
0.0
  0
SPLINE
  5
237
330
1F
100
AcDbEntity
  8
0
  6
Continuous
 62
     7
370
    25
100
AcDbSpline
210
0.0
220
0.0
230
1.0
 70
     8
 71
     3
 72
    11
 73
     7
 74
     0
 42
0.000000001
 43
0.00000001
 40
0.0
 40
0.0
 40
0.0
 40
0.0
 40
0.2636111690150668
 40
0.5557935629481423
 40
0.8007986036739365
 40
1.0
 40
1.0
 40
1.0
 40
1.0
 10
217.3622346535616
 20
191.1509353993597
 30
0.0
 10
217.2423939187233
 20
191.182012458207
 30
0.0
 10
216.9897236344901
 20
191.2475348309017
 30
0.0
 10
216.6725600393038
 20
191.4512538265436
 30
0.0
 10
216.425683089203
 20
191.7100201246441
 30
0.0
 10
216.3848633079847
 20
191.9169363699471
 30
0.0
 10
216.3665579509746
 20
192.0097265718641
 30
0.0
  0
SPLINE
  5
238
330
1F
100
AcDbEntity
  8
0
  6
Continuous
 62
     7
370
    25
100
AcDbSpline
210
0.0
220
0.0
230
1.0
 70
     8
 71
     3
 72
    11
 73
     7
 74
     0
 42
0.000000001
 43
0.00000001
 40
0.0
 40
0.0
 40
0.0
 40
0.0
 40
0.1595131781059859
 40
0.4018865566950984
 40
0.6850152625650342
 40
0.9999999999999999
 40
0.9999999999999999
 40
0.9999999999999999
 40
0.9999999999999999
 10
216.3665579509746
 20
162.6147982059183
 30
0.0
 10
216.3785526706009
 20
162.6892249841366
 30
0.0
 10
216.4087728481837
 20
162.8767400344867
 30
0.0
 10
216.624450373569
 20
163.1308071072211
 30
0.0
 10
216.9476724810554
 20
163.359142263058
 30
0.0
 10
217.2192262018839
 20
163.432801452506
 30
0.0
 10
217.3622346535616
 20
163.4715926228227
 30
0.0
  0
LINE
  5
239
330
1F
100
AcDbEntity
  8
0
  6
Continuous
 62
     7
370
    25
100
AcDbLine
 10
223.949471424
 20
174.8057513358
 30
0.0
 11
224.4634962926
 21
174.8057513358
 31
0.0
  0
ARC
  5
23A
330
1F
100
AcDbEntity
  8
0
  6
Continuous
 62
     7
370
    25
100
AcDbCircle
 10
216.33768749
 20
191.5519437144
 30
0.0
 40
0.4586923240401033
100
AcDbArc
 50
3.6717114094
 51
86.3913726111
  0
ARC
  5
23B
330
1F
100
AcDbEntity
  8
0
  6
Continuous
 62
     7
370
    25
100
AcDbCircle
 10
216.3374414033
 20
163.0727998182
 30
0.0
 40
0.4589261925874434
100
AcDbArc
 50
273.6375708051
 51
356.3531281214
  0
LINE
  5
23C
330
1F
100
AcDbEntity
  8
0
  6
Continuous
 62
     8
370
    25
100
AcDbLine
 10
259.4937164622
 20
182.5477206474
 30
0.0
 11
259.4937164622
 21
194.3192351936
 31
0.0
  0
LINE
  5
23D
330
1F
100
AcDbEntity
  8
0
  6
Continuous
 62
     8
370
    25
100
AcDbLine
 10
259.4937164622
 20
160.3192370711
 30
0.0
 11
259.4937164622
 21
182.5477206474
 31
0.0
  0
LINE
  5
23E
330
1F
100
AcDbEntity
  8
0
  6
Continuous
 62
     8
370
    25
100
AcDbLine
 10
267.8891461628
 20
182.0707531041
 30
0.0
 11
267.8891461628
 21
161.87004562
 31
0.0
  0
LINE
  5
23F
330
1F
100
AcDbEntity
  8
0
  6
Continuous
 62
     8
370
    25
100
AcDbLine
 10
267.8891461628
 20
192.768419194
 30
0.0
 11
267.8891461628
 21
182.0707531041
 31
0.0
  0
LINE
  5
240
330
1F
100
AcDbEntity
  8
0
  6
Continuous
 62
     8
370
    25
100
AcDbLine
 10
299.1064045864
 20
180.242704493
 30
0.0
 11
299.1064045864
 21
186.8246589182
 31
0.0
  0
LINE
  5
241
330
1F
100
AcDbEntity
  8
0
  6
Continuous
 62
     8
370
    25
100
AcDbLine
 10
299.1064045864
 20
167.8138058959
 30
0.0
 11
299.1064045864
 21
180.242704493
 31
0.0
  0
LINE
  5
242
330
1F
100
AcDbEntity
  8
0
  6
Continuous
 62
     8
370
    25
100
AcDbLine
 10
245.0954377936
 20
158.2192313252
 30
0.0
 11
245.0954377936
 21
196.4192334889
 31
0.0
  0
LINE
  5
243
330
1F
100
AcDbEntity
  8
0
  6
Continuous
 62
     8
370
    25
100
AcDbLine
 10
218.1954383204
 20
196.4192334889
 30
0.0
 11
218.1954383204
 21
158.2192313252
 31
0.0
  0
LINE
  5
244
330
1F
100
AcDbEntity
  8
0
  6
Continuous
 62
     8
370
    25
100
AcDbLine
 10
246.5651318716
 20
159.4192367373
 30
0.0
 11
246.5651318716
 21
195.2192355273
 31
0.0
  0
LINE
  5
245
330
1F
100
AcDbEntity
  8
0
  6
Continuous
 62
     8
370
    25
100
AcDbLine
 10
247.0550298976
 20
194.8192324815
 30
0.0
 11
247.0550298976
 21
159.8192360578
 31
0.0
  0
LINE
  5
246
330
1F
100
AcDbEntity
  8
0
  6
Continuous
 62
     8
370
    25
100
AcDbLine
 10
165.7653753
 20
167.2248822032
 30
0.0
 11
165.7653753
 21
197.069233316
 31
0.0
  0
LINE
  5
247
330
1F
100
AcDbEntity
  8
0
  6
Continuous
 62
     8
370
    25
100
AcDbLine
 10
165.7653753
 20
157.5692352234
 30
0.0
 11
165.7653753
 21
167.2248822032
 31
0.0
  0
LINE
  5
248
330
1F
100
AcDbEntity
  8
0
  6
Continuous
 62
     8
370
    25
100
AcDbLine
 10
162.8325287538
 20
167.5540488539
 30
0.0
 11
162.8325287538
 21
196.4252088545
 31
0.0
  0
LINE
  5
249
330
1F
100
AcDbEntity
  8
0
  6
Continuous
 62
     8
370
    25
100
AcDbLine
 10
162.8325287538
 20
158.2132559596
 30
0.0
 11
162.8325287538
 21
167.5540488539
 31
0.0
  0
LINE
  5
24A
330
1F
100
AcDbEntity
  8
0
  6
Continuous
 62
     8
370
    25
100
AcDbLine
 10
130.1481951313
 20
171.4297184115
 30
0.0
 11
130.1481951313
 21
188.8422984956
 31
0.0
  0
LINE
  5
24B
330
1F
100
AcDbEntity
  8
0
  6
Continuous
 62
     8
370
    25
100
AcDbLine
 10
130.1481951313
 20
165.7961663185
 30
0.0
 11
130.1481951313
 21
171.4297184115
 31
0.0
  0
LINE
  5
24C
330
1F
100
AcDbEntity
  8
0
  6
Continuous
 62
     8
370
    25
100
AcDbLine
 10
180.6954410212
 20
198.3192321239
 30
0.0
 11
180.6954410212
 21
156.3194450317
 31
0.0
  0
LINE
  5
24D
330
1F
100
AcDbEntity
  8
0
  6
Continuous
 62
     8
370
    25
100
AcDbLine
 10
182.1954403358
 20
156.3192364155
 30
0.0
 11
182.1954403358
 21
198.3190235077
 31
0.0
  0
SPLINE
  5
24E
330
1F
100
AcDbEntity
  8
0
  6
Continuous
 62
     8
370
    25
100
AcDbSpline
210
0.0
220
0.0
230
1.0
 70
     8
 71
     3
 72
     9
 73
     5
 74
     0
 42
0.000000001
 43
0.00000001
 40
0.0
 40
0.0
 40
0.0
 40
0.0
 40
0.6067850270768472
 40
0.9999999999999999
 40
0.9999999999999999
 40
0.9999999999999999
 40
0.9999999999999999
 10
191.2954379158385
 20
176.0171115491675
 30
0.0
 10
191.1250347587109
 20
176.0121977043431
 30
0.0
 10
190.8442052234989
 20
176.0040995400755
 30
0.0
 10
190.5632668961892
 20
176.0038746255349
 30
0.0
 10
190.4527977394231
 20
176.0037861857699
 30
0.0
  0
SPLINE
  5
24F
330
1F
100
AcDbEntity
  8
0
  6
Continuous
 62
     8
370
    25
100
AcDbSpline
210
0.0
220
0.0
230
1.0
 70
     8
 71
     3
 72
     9
 73
     5
 74
     0
 42
0.000000001
 43
0.00000001
 40
0.0
 40
0.0
 40
0.0
 40
0.0
 40
0.3932088155477139
 40
1.0
 40
1.0
 40
1.0
 40
1.0
 10
190.4527977394231
 20
175.4920318815993
 30
0.0
 10
190.5632674564089
 20
175.4921240512467
 30
0.0
 10
190.844211607755
 20
175.4923584550639
 30
0.0
 10
191.1250360935063
 20
175.5008517742812
 30
0.0
 10
191.2954379158385
 20
175.5060054455089
 30
0.0
  0
SPLINE
  5
250
330
1F
100
AcDbEntity
  8
0
  6
Continuous
 62
     8
370
    25
100
AcDbSpline
210
0.0
220
0.0
230
1.0
 70
     8
 71
     3
 72
     9
 73
     5
 74
     0
 42
0.000000001
 43
0.00000001
 40
0.0
 40
0.0
 40
0.0
 40
0.0
 40
0.3276715425691321
 40
1.0
 40
1.0
 40
1.0
 40
1.0
 10
190.4527977394231
 20
176.5366889047573
 30
0.0
 10
190.5448549893123
 20
176.5368225325409
 30
0.0
 10
190.8257986720243
 20
176.5372303426993
 30
0.0
 10
191.1066282194301
 20
176.5457011715567
 30
0.0
 10
191.2954379158385
 20
176.5513963508556
 30
0.0
  0
LINE
  5
251
330
1F
100
AcDbEntity
  8
0
  6
Continuous
 62
     8
370
    25
100
AcDbLine
 10
190.4527977394
 20
175.4920318816
 30
0.0
 11
190.4527977394
 21
175.0401167991
 31
0.0
  0
SPLINE
  5
252
330
1F
100
AcDbEntity
  8
0
  6
Continuous
 62
     8
370
    25
100
AcDbSpline
210
0.0
220
0.0
230
1.0
 70
     8
 71
     3
 72
     9
 73
     5
 74
     0
 42
0.000000001
 43
0.00000001
 40
0.0
 40
0.0
 40
0.0
 40
0.0
 40
0.4649350432554937
 40
1.0
 40
1.0
 40
1.0
 40
1.0
 10
183.1954386370547
 20
175.0803760113331
 30
0.0
 10
183.1960387616625
 20
175.069661712967
 30
0.0
 10
183.1973295325273
 20
175.0466169919431
 30
0.0
 10
183.2206399241551
 20
175.0434648690501
 30
0.0
 10
183.2331124978431
 20
175.0417782785507
 30
0.0
  0
ARC
  5
253
330
1F
100
AcDbEntity
  8
0
  6
Continuous
 62
     8
370
    25
100
AcDbCircle
 10
183.2483995423
 20
174.558097048
 30
0.0
 40
0.4860889614632887
100
AcDbArc
 50
109.6245593253
 51
179.688589852
  0
LINE
  5
254
330
1F
100
AcDbEntity
  8
0
  6
Continuous
 62
     8
370
    25
100
AcDbLine
 10
185.1954389649
 20
175.0401167991
 30
0.0
 11
185.1954389649
 21
174.7491530003
 31
0.0
  0
LINE
  5
255
330
1F
100
AcDbEntity
  8
0
  6
Continuous
 62
     8
370
    25
100
AcDbLine
 10
185.1954389649
 20
177.1673097718
 30
0.0
 11
191.2954379158
 21
177.1673097718
 31
0.0
  0
LINE
  5
256
330
1F
100
AcDbEntity
  8
0
  6
Continuous
 62
     8
370
    25
100
AcDbLine
 10
191.2954379158
 20
174.7491530003
 30
0.0
 11
185.1954389649
 21
174.7491530003
 31
0.0
  0
LINE
  5
257
330
1F
100
AcDbEntity
  8
0
  6
Continuous
 62
     8
370
    25
100
AcDbLine
 10
191.2954379158
 20
190.1492048381
 30
0.0
 11
185.1954389649
 21
190.1492048381
 31
0.0
  0
LINE
  5
258
330
1F
100
AcDbEntity
  8
0
  6
Continuous
 62
     8
370
    25
100
AcDbLine
 10
185.1954389649
 20
162.9544552742
 30
0.0
 11
191.2954379158
 21
162.9544552742
 31
0.0
  0
SPLINE
  5
259
330
1F
100
AcDbEntity
  8
0
  6
Continuous
 62
     8
370
    25
100
AcDbSpline
210
0.0
220
0.0
230
1.0
 70
     8
 71
     3
 72
     9
 73
     5
 74
     0
 42
0.000000001
 43
0.00000001
 40
0.0
 40
0.0
 40
0.0
 40
0.0
 40
0.6779729715086985
 40
1.0
 40
1.0
 40
1.0
 40
1.0
 10
191.2954379158385
 20
191.9458117662134
 30
0.0
 10
191.108297595497
 20
192.0024254046689
 30
0.0
 10
190.8322684199901
 20
192.0859296752441
 30
0.0
 10
190.5452314136438
 20
192.0904675191887
 30
0.0
 10
190.4527977394231
 20
192.09192882759
 30
0.0
  0
LINE
  5
25A
330
1F
100
AcDbEntity
  8
0
  6
Continuous
 62
     8
370
    25
100
AcDbLine
 10
185.1954389649
 20
190.8229496656
 30
0.0
 11
191.2954379158
 21
190.8229496656
 31
0.0
  0
SPLINE
  5
25B
330
1F
100
AcDbEntity
  8
0
  6
Continuous
 62
     8
370
    25
100
AcDbSpline
210
0.0
220
0.0
230
1.0
 70
     8
 71
     3
 72
     9
 73
     5
 74
     0
 42
0.000000001
 43
0.00000001
 40
0.0
 40
0.0
 40
0.0
 40
0.0
 40
0.3871050307037811
 40
1.0
 40
1.0
 40
1.0
 40
1.0
 10
190.4527977394231
 20
192.7838493464651
 30
0.0
 10
190.5638087184529
 20
192.7827601465038
 30
0.0
 10
190.85058096429
 20
192.7799464399517
 30
0.0
 10
191.1263936861454
 20
192.6984043377566
 30
0.0
 10
191.2954379158385
 20
192.6484275935354
 30
0.0
  0
SPLINE
  5
25C
330
1F
100
AcDbEntity
  8
0
  6
Continuous
 62
     8
370
    25
100
AcDbSpline
210
0.0
220
0.0
230
1.0
 70
     8
 71
     3
 72
     9
 73
     5
 74
     0
 42
0.000000001
 43
0.00000001
 40
0.0
 40
0.0
 40
0.0
 40
0.0
 40
0.6129279980282106
 40
1.0
 40
1.0
 40
1.0
 40
1.0
 10
191.2954379158385
 20
192.9407138703527
 30
0.0
 10
191.126401222347
 20
192.9908285642808
 30
0.0
 10
190.8506156585691
 20
193.0725913391732
 30
0.0
 10
190.5638115715567
 20
193.0754151386108
 30
0.0
 10
190.4527977394231
 20
193.0765081523122
 30
0.0
  0
LINE
  5
25D
330
1F
100
AcDbEntity
  8
0
  6
Continuous
 62
     8
370
    25
100
AcDbLine
 10
183.1954386371
 20
193.1618433772
 30
0.0
 11
183.1954386371
 21
193.0765081523
 31
0.0
  0
LINE
  5
25E
330
1F
100
AcDbEntity
  8
0
  6
Continuous
 62
     8
370
    25
100
AcDbLine
 10
190.4527977394
 20
193.1618433772
 30
0.0
 11
190.4527977394
 21
193.0765081523
 31
0.0
  0
LINE
  5
25F
330
1F
100
AcDbEntity
  8
0
  6
Continuous
 62
     8
370
    25
100
AcDbLine
 10
185.1954389649
 20
193.8192341803
 30
0.0
 11
185.1954389649
 21
193.1618433772
 31
0.0
  0
SPLINE
  5
260
330
1F
100
AcDbEntity
  8
0
  6
Continuous
 62
     8
370
    25
100
AcDbSpline
210
0.0
220
0.0
230
1.0
 70
     8
 71
     3
 72
     9
 73
     5
 74
     0
 42
0.000000001
 43
0.00000001
 40
0.0
 40
0.0
 40
0.0
 40
0.0
 40
0.320866650440036
 40
1.0
 40
1.0
 40
1.0
 40
1.0
 10
190.4527977394231
 20
160.9091218887033
 30
0.0
 10
190.5453063892744
 20
160.9107597350279
 30
0.0
 10
190.8336150985919
 20
160.9158641805114
 30
0.0
 10
191.1086515138758
 20
161.0076293407934
 30
0.0
 10
191.2954379158385
 20
161.0699501214685
 30
0.0
  0
SPLINE
  5
261
330
1F
100
AcDbEntity
  8
0
  6
Continuous
 62
     8
370
    25
100
AcDbSpline
210
0.0
220
0.0
230
1.0
 70
     8
 71
     3
 72
     9
 73
     5
 74
     0
 42
0.000000001
 43
0.00000001
 40
0.0
 40
0.0
 40
0.0
 40
0.0
 40
0.6141578462993076
 40
1.0
 40
1.0
 40
1.0
 40
1.0
 10
191.2954379158385
 20
160.3956278739633
 30
0.0
 10
191.1266833219469
 20
160.3405917205227
 30
0.0
 10
190.8519093450151
 20
160.2509793289001
 30
0.0
 10
190.5639172352887
 20
160.2477557474903
 30
0.0
 10
190.4527977394231
 20
160.2465119538965
 30
0.0
  0
LINE
  5
262
330
1F
100
AcDbEntity
  8
0
  6
Continuous
 62
     8
370
    25
100
AcDbLine
 10
191.2954379158
 20
162.3058300791
 30
0.0
 11
185.1954389649
 21
162.3058300791
 31
0.0
  0
SPLINE
  5
263
330
1F
100
AcDbEntity
  8
0
  6
Continuous
 62
     8
370
    25
100
AcDbSpline
210
0.0
220
0.0
230
1.0
 70
     8
 71
     3
 72
     9
 73
     5
 74
     0
 42
0.000000001
 43
0.00000001
 40
0.0
 40
0.0
 40
0.0
 40
0.0
 40
0.3858146759694679
 40
1.0
 40
1.0
 40
1.0
 40
1.0
 10
190.4527977394231
 20
160.0274127302827
 30
0.0
 10
190.5639195833347
 20
160.0286590680428
 30
0.0
 10
190.8519382898093
 20
160.0318894733064
 30
0.0
 10
191.126689657838
 20
160.1216699321846
 30
0.0
 10
191.2954379158385
 20
160.1768117724123
 30
0.0
  0
LINE
  5
264
330
1F
100
AcDbEntity
  8
0
  6
Continuous
 62
     8
370
    25
100
AcDbLine
 10
183.1954386371
 20
160.0274127303
 30
0.0
 11
183.1954386371
 21
159.9824633775
 31
0.0
  0
LINE
  5
265
330
1F
100
AcDbEntity
  8
0
  6
Continuous
 62
     8
370
    25
100
AcDbLine
 10
190.4527977394
 20
160.0274127303
 30
0.0
 11
190.4527977394
 21
159.9825304328
 31
0.0
  0
LINE
  5
266
330
1F
100
AcDbEntity
  8
0
  6
Continuous
 62
     8
370
    25
100
AcDbLine
 10
190.4527977394
 20
194.3693328975
 30
0.0
 11
183.6308654683
 21
194.3693328975
 31
0.0
  0
SPLINE
  5
267
330
1F
100
AcDbEntity
  8
0
  6
Continuous
 62
     8
370
    25
100
AcDbSpline
210
0.0
220
0.0
230
1.0
 70
     8
 71
     3
 72
     9
 73
     5
 74
     0
 42
0.000000001
 43
0.00000001
 40
0.0
 40
0.0
 40
0.0
 40
0.0
 40
0.6791325058719313
 40
1.0
 40
1.0
 40
1.0
 40
1.0
 10
191.2954379158385
 20
194.2085083900156
 30
0.0
 10
191.1086512551906
 20
194.2708249476567
 30
0.0
 10
190.833614117323
 20
194.3625840036616
 30
0.0
 10
190.5453063350565
 20
194.3676934441307
 30
0.0
 10
190.4527977394231
 20
194.3693328974905
 30
0.0
  0
LINE
  5
268
330
1F
100
AcDbEntity
  8
0
  6
Continuous
 62
     8
370
    25
100
AcDbLine
 10
190.4527977394
 20
194.6560051618
 30
0.0
 11
190.4527977394
 21
194.3693328975
 31
0.0
  0
LINE
  5
269
330
1F
100
AcDbEntity
  8
0
  6
Continuous
 62
     8
370
    25
100
AcDbLine
 10
211.910637031
 20
157.810149747
 30
0.0
 11
211.910637031
 21
196.828326243
 31
0.0
  0
LINE
  5
26A
330
1F
100
AcDbEntity
  8
0
  6
Continuous
 62
     8
370
    25
100
AcDbLine
 10
208.7954389217
 20
179.4150269451
 30
0.0
 11
208.7954389217
 21
198.3192321239
 31
0.0
  0
LINE
  5
26B
330
1F
100
AcDbEntity
  8
0
  6
Continuous
 62
     8
370
    25
100
AcDbLine
 10
208.7954389217
 20
156.3192364155
 30
0.0
 11
208.7954389217
 21
175.1891060593
 31
0.0
  0
LINE
  5
26C
330
1F
100
AcDbEntity
  8
0
  6
Continuous
 62
     8
370
    25
100
AcDbLine
 10
191.7954370665
 20
198.3192283986
 30
0.0
 11
191.7954370665
 21
156.3192364155
 31
0.0
  0
SPLINE
  5
26D
330
1F
100
AcDbEntity
  8
0
  6
Continuous
 62
     8
370
    25
100
AcDbSpline
210
0.0
220
0.0
230
1.0
 70
     8
 71
     3
 72
    11
 73
     7
 74
     0
 42
0.000000001
 43
0.00000001
 40
0.0
 40
0.0
 40
0.0
 40
0.0
 40
0.18524150700869
 40
0.4438110871588667
 40
0.7664802496101205
 40
1.0
 40
1.0
 40
1.0
 40
1.0
 10
216.3665579509746
 20
192.0097265718641
 30
0.0
 10
216.3773265262993
 20
192.0783703207879
 30
0.0
 10
216.4031264304308
 20
192.2428305291314
 30
0.0
 10
216.6345672411303
 20
192.4349684594123
 30
0.0
 10
216.9103323470107
 20
192.5465713656638
 30
0.0
 10
217.1111314246194
 20
192.5827308487628
 30
0.0
 10
217.1954383020114
 20
192.5979126570882
 30
0.0
  0
SPLINE
  5
26E
330
1F
100
AcDbEntity
  8
0
  6
Continuous
 62
     8
370
    25
100
AcDbSpline
210
0.0
220
0.0
230
1.0
 70
     8
 71
     3
 72
    11
 73
     7
 74
     0
 42
0.000000001
 43
0.00000001
 40
0.0
 40
0.0
 40
0.0
 40
0.0
 40
0.1725221673397841
 40
0.5108966715952259
 40
0.7733171214604786
 40
1.0
 40
1.0
 40
1.0
 40
1.0
 10
217.1954383020114
 20
162.0265152631464
 30
0.0
 10
217.1332513414673
 20
162.0374305506548
 30
0.0
 10
216.9490946522226
 20
162.0697544203555
 30
0.0
 10
216.6856893321054
 20
162.1661453209818
 30
0.0
 10
216.4199892579855
 20
162.3499195249833
 30
0.0
 10
216.3834791522493
 20
162.5309135748992
 30
0.0
 10
216.3665579509746
 20
162.6147982059183
 30
0.0
  0
LINE
  5
26F
330
1F
100
AcDbEntity
  8
0
  6
Continuous
 62
     8
370
    25
100
AcDbLine
 10
223.9494663017
 20
174.8056470277
 30
0.0
 11
224.4633253949
 21
174.8056470277
 31
0.0
  0
SPLINE
  5
270
330
1F
100
AcDbEntity
  8
0
  6
Continuous
 62
     8
370
    25
100
AcDbSpline
210
0.0
220
0.0
230
1.0
 70
     8
 71
     3
 72
    10
 73
     6
 74
     0
 42
0.000000001
 43
0.00000001
 40
0.0
 40
0.0
 40
0.0
 40
0.0
 40
0.4238782689208295
 40
0.7632946974011681
 40
1.0
 40
1.0
 40
1.0
 40
1.0
 10
217.1954383020114
 20
191.8891687272253
 30
0.0
 10
217.1217390174336
 20
191.8710226656045
 30
0.0
 10
216.9890257427859
 20
191.8383463204616
 30
0.0
 10
216.8224110321645
 20
191.7309056935779
 30
0.0
 10
216.8032930817401
 20
191.6248799225897
 30
0.0
 10
216.7954382830124
 20
191.581318187541
 30
0.0
  0
SPLINE
  5
271
330
1F
100
AcDbEntity
  8
0
  6
Continuous
 62
     8
370
    25
100
AcDbSpline
210
0.0
220
0.0
230
1.0
 70
     8
 71
     3
 72
    10
 73
     6
 74
     0
 42
0.000000001
 43
0.00000001
 40
0.0
 40
0.0
 40
0.0
 40
0.0
 40
0.2898381114208872
 40
0.6393124428831062
 40
1.0
 40
1.0
 40
1.0
 40
1.0
 10
216.7954382830124
 20
163.0436089215936
 30
0.0
 10
216.8079595384781
 20
162.9906930462429
 30
0.0
 10
216.8355783853594
 20
162.8739734838225
 30
0.0
 10
217.0096010629334
 20
162.7822239423047
 30
0.0
 10
217.1328439008528
 20
162.7542452490438
 30
0.0
 10
217.1954383020114
 20
162.740035015172
 30
0.0
  0
DIMENSION
  5
272
330
1F
100
AcDbEntity
  8
FORMAT
100
AcDbDimension
  2
_D
 10
300.0954382854
 20
134.2494121116
 30
0.0
 11
214.1454382854
 21
134.2494121116
 31
0.0
 70
   160
  1
約172mm
 71
     2
 42
-1.0
  3
SLDDIMSTYLE0
100
AcDbAlignedDimension
 13
128.1954382854
 23
167.7956099835
 33
0.0
 14
300.0954382854
 24
168.8137486411
 34
0.0
100
AcDbRotatedDimension
  0
MTEXT
  5
283
330
1F
100
AcDbEntity
  8
FORMAT
100
AcDbMText
 10
57.3385242357
 20
179.1055101876
 30
0.0
 40
3.5
 41
0.0
 71
     1
 72
     1
  1
照明器具側
  7
SLDTEXTSTYLE0
 73
     1
 44
1.0
  0
MTEXT
  5
284
330
1F
100
AcDbEntity
  8
FORMAT
100
AcDbMText
 10
354.9937964382
 20
179.1055101876
 30
0.0
 40
3.5
 41
0.0
 71
     1
 72
     1
  1
ブランチケーブル側
  7
SLDTEXTSTYLE0
 73
     1
 44
1.0
  0
INSERT
  5
28A
330
1F
100
AcDbEntity
  8
FORMAT
100
AcDbBlockReference
  2
SW_NOTE_4
 10
188.1456381868
 20
212.1480882342
 30
0.0
  0
LEADER
  5
294
330
1F
100
AcDbEntity
  8
FORMAT
100
AcDbLeader
  3
SLDDIMSTYLE1
 76
     2
 10
197.6477547368
 20
190.2523936309
 30
0.0
 10
188.1456381868
 20
212.1480882342
 30
0.0
  0
INSERT
  5
29A
330
1F
100
AcDbEntity
  8
FORMAT
100
AcDbBlockReference
  2
SW_NOTE_5
 10
240.1234675934
 20
212.1683388007
 30
0.0
  0
LEADER
  5
29B
330
1F
100
AcDbEntity
  8
FORMAT
100
AcDbLeader
  3
SLDDIMSTYLE1
 76
     2
 10
230.1246214172
 20
190.2523936309
 30
0.0
 10
240.1234675934
 20
212.1683388007
 30
0.0
  0
ENDSEC
  0
SECTION
  2
OBJECTS
  0
DICTIONARY
  5
C
330
0
100
AcDbDictionary
281
     1
  3
ACAD_GROUP
350
D
  3
ACAD_LAYOUT
350
1A
  3
ACAD_MLINESTYLE
350
17
  3
ACAD_PLOTSETTINGS
350
19
  3
ACAD_PLOTSTYLENAME
350
E
  3
ACAD_SCALELIST
350
47
  0
DICTIONARY
  5
D
102
{ACAD_REACTORS
330
C
102
}
330
C
100
AcDbDictionary
281
     1
  0
DICTIONARY
  5
1A
102
{ACAD_REACTORS
330
C
102
}
330
C
100
AcDbDictionary
281
     1
  3
Layout1
350
1E
  3
Layout2
350
26
  3
Model
350
22
  0
DICTIONARY
  5
17
102
{ACAD_REACTORS
330
C
102
}
330
C
100
AcDbDictionary
281
     1
  3
Standard
350
18
  0
DICTIONARY
  5
19
102
{ACAD_REACTORS
330
C
102
}
330
C
100
AcDbDictionary
281
     1
  0
ACDBDICTIONARYWDFLT
  5
E
102
{ACAD_REACTORS
330
C
102
}
330
C
100
AcDbDictionary
281
     1
  3
Normal
350
F
100
AcDbDictionaryWithDefault
340
F
  0
DICTIONARY
  5
47
102
{ACAD_REACTORS
330
C
102
}
330
C
100
AcDbDictionary
281
     1
  3
A0
350
48
  3
A1
350
49
  3
A2
350
4A
  3
A3
350
4B
  3
A4
350
4C
  3
A5
350
4D
  3
A6
350
4E
  3
A7
350
4F
  3
A8
350
50
  3
A9
350
51
  3
B0
350
52
  3
B1
350
53
  3
B2
350
54
  3
B3
350
55
  3
B4
350
56
  3
B5
350
57
  3
B6
350
58
  3
B7
350
59
  3
B8
350
5A
  3
B9
350
5B
  3
C0
350
5C
  3
C1
350
5D
  3
C2
350
5E
  3
C3
350
5F
  3
C4
350
60
  3
C5
350
61
  3
C6
350
62
  3
C7
350
63
  3
C8
350
64
  3
C9
350
65
  3
D0
350
66
  3
D1
350
67
  3
D2
350
68
  0
LAYOUT
  5
1E
102
{ACAD_REACTORS
330
1A
102
}
330
1A
100
AcDbPlotSettings
  1

  2
none_device
  4

  6

 40
0.0
 41
0.0
 42
0.0
 43
0.0
 44
0.0
 45
0.0
 46
0.0
 47
0.0
 48
0.0
 49
0.0
140
0.0
141
0.0
142
1.0
143
1.0
 70
   688
 72
     1
 73
     0
 74
     5
  7

 75
    16
147
1.0
148
0.0
149
0.0
100
AcDbLayout
  1
Layout1
 70
     1
 71
     1
 10
0.0
 20
0.0
 11
420.0
 21
297.0
 12
0.0
 22
0.0
 32
0.0
 14
1.0000000000E+20
 24
1.0000000000E+20
 34
1.0000000000E+20
 15
-1.0000000000E+20
 25
-1.0000000000E+20
 35
-1.0000000000E+20
146
0.0
 13
0.0
 23
0.0
 33
0.0
 16
1.0
 26
0.0
 36
0.0
 17
0.0
 27
1.0
 37
0.0
 76
     0
330
1B
  0
LAYOUT
  5
26
102
{ACAD_REACTORS
330
1A
102
}
330
1A
100
AcDbPlotSettings
  1

  2
none_device
  4

  6

 40
0.0
 41
0.0
 42
0.0
 43
0.0
 44
0.0
 45
0.0
 46
0.0
 47
0.0
 48
0.0
 49
0.0
140
0.0
141
0.0
142
1.0
143
1.0
 70
   688
 72
     1
 73
     0
 74
     5
  7

 75
    16
147
1.0
148
0.0
149
0.0
100
AcDbLayout
  1
Layout2
 70
     1
 71
     2
 10
0.0
 20
0.0
 11
0.0
 21
0.0
 12
0.0
 22
0.0
 32
0.0
 14
0.0
 24
0.0
 34
0.0
 15
0.0
 25
0.0
 35
0.0
146
0.0
 13
0.0
 23
0.0
 33
0.0
 16
1.0
 26
0.0
 36
0.0
 17
0.0
 27
1.0
 37
0.0
 76
     0
330
23
  0
LAYOUT
  5
22
102
{ACAD_REACTORS
330
1A
102
}
330
1A
100
AcDbPlotSettings
  1

  2
none_device
  4
Letter_(8.50_x_11.00_Inches)
  6

 40
6.35
 41
6.35
 42
6.35000508
 43
6.35000508
 44
215.9
 45
279.4
 46
0.0
 47
0.0
 48
0.0
 49
0.0
140
0.0
141
0.0
142
1.0
143
1.0
 70
  1712
 72
     1
 73
     0
 74
     0
  7

 75
     0
147
1.0
148
0.0
149
0.0
100
AcDbLayout
  1
Model
 70
     1
 71
     0
 10
0.0
 20
0.0
 11
420.0
 21
297.0
 12
0.0
 22
0.0
 32
0.0
 14
0.0
 24
0.0
 34
0.0
 15
420.0
 25
297.0
 35
0.0
146
0.0
 13
0.0
 23
0.0
 33
0.0
 16
1.0
 26
0.0
 36
0.0
 17
0.0
 27
1.0
 37
0.0
 76
     0
330
1F
331
29
  0
MLINESTYLE
  5
18
102
{ACAD_REACTORS
330
17
102
}
330
17
100
AcDbMlineStyle
  2
Standard
 70
     0
  3

 62
   256
 51
90.0
 52
90.0
 71
     2
 49
0.5
 62
   256
  6
BYLAYER
 49
-0.5
 62
   256
  6
BYLAYER
  0
ACDBPLACEHOLDER
  5
F
102
{ACAD_REACTORS
330
E
102
}
330
E
  0
SCALE
  5
48
102
{ACAD_REACTORS
330
47
102
}
330
47
100
AcDbScale
 70
     0
300
1:1
140
1.0
141
1.0
290
     1
  0
SCALE
  5
49
102
{ACAD_REACTORS
330
47
102
}
330
47
100
AcDbScale
 70
     0
300
1:2
140
1.0
141
2.0
290
     0
  0
SCALE
  5
4A
102
{ACAD_REACTORS
330
47
102
}
330
47
100
AcDbScale
 70
     0
300
1:4
140
1.0
141
4.0
290
     0
  0
SCALE
  5
4B
102
{ACAD_REACTORS
330
47
102
}
330
47
100
AcDbScale
 70
     0
300
1:5
140
1.0
141
5.0
290
     0
  0
SCALE
  5
4C
102
{ACAD_REACTORS
330
47
102
}
330
47
100
AcDbScale
 70
     0
300
1:8
140
1.0
141
8.0
290
     0
  0
SCALE
  5
4D
102
{ACAD_REACTORS
330
47
102
}
330
47
100
AcDbScale
 70
     0
300
1:10
140
1.0
141
10.0
290
     0
  0
SCALE
  5
4E
102
{ACAD_REACTORS
330
47
102
}
330
47
100
AcDbScale
 70
     0
300
1:16
140
1.0
141
16.0
290
     0
  0
SCALE
  5
4F
102
{ACAD_REACTORS
330
47
102
}
330
47
100
AcDbScale
 70
     0
300
1:20
140
1.0
141
20.0
290
     0
  0
SCALE
  5
50
102
{ACAD_REACTORS
330
47
102
}
330
47
100
AcDbScale
 70
     0
300
1:30
140
1.0
141
30.0
290
     0
  0
SCALE
  5
51
102
{ACAD_REACTORS
330
47
102
}
330
47
100
AcDbScale
 70
     0
300
1:40
140
1.0
141
40.0
290
     0
  0
SCALE
  5
52
102
{ACAD_REACTORS
330
47
102
}
330
47
100
AcDbScale
 70
     0
300
1:50
140
1.0
141
50.0
290
     0
  0
SCALE
  5
53
102
{ACAD_REACTORS
330
47
102
}
330
47
100
AcDbScale
 70
     0
300
1:100
140
1.0
141
100.0
290
     0
  0
SCALE
  5
54
102
{ACAD_REACTORS
330
47
102
}
330
47
100
AcDbScale
 70
     0
300
2:1
140
2.0
141
1.0
290
     0
  0
SCALE
  5
55
102
{ACAD_REACTORS
330
47
102
}
330
47
100
AcDbScale
 70
     0
300
4:1
140
4.0
141
1.0
290
     0
  0
SCALE
  5
56
102
{ACAD_REACTORS
330
47
102
}
330
47
100
AcDbScale
 70
     0
300
8:1
140
8.0
141
1.0
290
     0
  0
SCALE
  5
57
102
{ACAD_REACTORS
330
47
102
}
330
47
100
AcDbScale
 70
     0
300
10:1
140
10.0
141
1.0
290
     0
  0
SCALE
  5
58
102
{ACAD_REACTORS
330
47
102
}
330
47
100
AcDbScale
 70
     0
300
100:1
140
100.0
141
1.0
290
     0
  0
SCALE
  5
59
102
{ACAD_REACTORS
330
47
102
}
330
47
100
AcDbScale
 70
     0
300
1/128" = 1'-0"
140
0.0078125
141
12.0
290
     0
  0
SCALE
  5
5A
102
{ACAD_REACTORS
330
47
102
}
330
47
100
AcDbScale
 70
     0
300
1/64" = 1'-0"
140
0.015625
141
12.0
290
     0
  0
SCALE
  5
5B
102
{ACAD_REACTORS
330
47
102
}
330
47
100
AcDbScale
 70
     0
300
1/32" = 1'-0"
140
0.03125
141
12.0
290
     0
  0
SCALE
  5
5C
102
{ACAD_REACTORS
330
47
102
}
330
47
100
AcDbScale
 70
     0
300
1/16" = 1'-0"
140
0.0625
141
12.0
290
     0
  0
SCALE
  5
5D
102
{ACAD_REACTORS
330
47
102
}
330
47
100
AcDbScale
 70
     0
300
3/32" = 1'-0"
140
0.09375
141
12.0
290
     0
  0
SCALE
  5
5E
102
{ACAD_REACTORS
330
47
102
}
330
47
100
AcDbScale
 70
     0
300
1/8" = 1'-0"
140
0.125
141
12.0
290
     0
  0
SCALE
  5
5F
102
{ACAD_REACTORS
330
47
102
}
330
47
100
AcDbScale
 70
     0
300
3/16" = 1'-0"
140
0.1875
141
12.0
290
     0
  0
SCALE
  5
60
102
{ACAD_REACTORS
330
47
102
}
330
47
100
AcDbScale
 70
     0
300
1/4" = 1'-0"
140
0.25
141
12.0
290
     0
  0
SCALE
  5
61
102
{ACAD_REACTORS
330
47
102
}
330
47
100
AcDbScale
 70
     0
300
3/8" = 1'-0"
140
0.375
141
12.0
290
     0
  0
SCALE
  5
62
102
{ACAD_REACTORS
330
47
102
}
330
47
100
AcDbScale
 70
     0
300
1/2" = 1'-0"
140
0.5
141
12.0
290
     0
  0
SCALE
  5
63
102
{ACAD_REACTORS
330
47
102
}
330
47
100
AcDbScale
 70
     0
300
3/4" = 1'-0"
140
0.75
141
12.0
290
     0
  0
SCALE
  5
64
102
{ACAD_REACTORS
330
47
102
}
330
47
100
AcDbScale
 70
     0
300
1" = 1'-0"
140
1.0
141
12.0
290
     0
  0
SCALE
  5
65
102
{ACAD_REACTORS
330
47
102
}
330
47
100
AcDbScale
 70
     0
300
1-1/2" = 1'-0"
140
1.5
141
12.0
290
     0
  0
SCALE
  5
66
102
{ACAD_REACTORS
330
47
102
}
330
47
100
AcDbScale
 70
     0
300
3" = 1'-0"
140
3.0
141
12.0
290
     0
  0
SCALE
  5
67
102
{ACAD_REACTORS
330
47
102
}
330
47
100
AcDbScale
 70
     0
300
6" = 1'-0"
140
6.0
141
12.0
290
     0
  0
SCALE
  5
68
102
{ACAD_REACTORS
330
47
102
}
330
47
100
AcDbScale
 70
     0
300
1'-0" = 1'-0"
140
12.0
141
12.0
290
     0
  0
ENDSEC
  0
EOF
